设为首页收藏本站

风云音乐谷

 找回密码
 注册会员

QQ登录

只需一步,快速开始

扫一扫,访问微社区




重磅:普通音乐转dts5.1环绕声、提升8倍音质(不改音响、不动设备、不接线)新功能上线!!
任何2.0音乐转为dts5.1环绕声音乐教程 制作5.1环绕声DTS Audio DVD音乐碟片 音质原形毕露:批量真假无损音乐鉴别方法
不改音响+不动设备+不接线提升8倍效果 制作5.1环绕声AC3 Audio DVD音乐碟片 提升音乐效果:用高中低音、EQ均衡器实现
破解奥迪、途锐、途观 实现U盘无损音乐 制作2.0立体声WAV Audio DVD音乐碟片 独家 绝密功能:键智能音乐切割、分割教程
制作U盘无损、有损、2.0、5.1移动音乐 制作世界最顶级DVD Audio无损音乐碟片 制作无损、有损、2.0、5.1图片画面音乐碟片
制作U盘无损、有损、2.0、5.1视频音乐 制作显示歌手和歌名cd、dts cd无损碟片 制作无损、有损、2.0、5.1视频画面音乐碟片

【揭露淘宝、微商U盘音乐和碟片15大骗术】            【新手必读:无损音乐下载、检测、制作、播放】   

查看: 10593|回复: 312

[群星] [wav/整軌]Various - A Patriot's Songbook[百度雲/Tosea 原抓]

  [复制链接]
发表于 2015-8-3 17:44:32 | 显示全部楼层 |阅读模式

这么精彩的内容,您还在等什么呢?马上注册风云音乐谷查看完整内容

您需要 登录 才可以下载或查看,没有帐号?注册会员

x
IMG_0087.jpg IMG_0088.jpg IMG_0089.jpg IMG_0090.jpg


PERFORMER "Various"
TITLE "A Patriot's Songbook"
FILE "CDImage.wav" WAVE
  TRACK 01 AUDIO
    TITLE "Amazing Grace"
    PERFORMER "Johnny Cash"
    INDEX 01 00:00:00
  TRACK 02 AUDIO
    TITLE "Blowin' In The Wind"
    PERFORMER "Peter Paul & Mary"
    INDEX 00 02:26:50
    INDEX 01 02:29:27
  TRACK 03 AUDIO
    TITLE "The Times They Are-A Changin'"
    PERFORMER "The Byrds"
    INDEX 00 05:25:57
    INDEX 01 05:28:35
  TRACK 04 AUDIO
    TITLE "America (Live)"
    PERFORMER "Paul Simon"
    INDEX 00 07:46:42
    INDEX 01 07:47:70
  TRACK 05 AUDIO
    TITLE "If I Had A Hammer(Live)"
    PERFORMER "Odetta"
    INDEX 00 11:20:02
    INDEX 01 11:22:45
  TRACK 06 AUDIO
    TITLE "God Bless The USA"
    PERFORMER "Lee Greenwood"
    INDEX 00 13:15:52
    INDEX 01 13:17:07
  TRACK 07 AUDIO
    TITLE "Home On The Range"
    PERFORMER "Riders In The Sky"
    INDEX 00 14:56:62
    INDEX 01 14:59:02
  TRACK 08 AUDIO
    TITLE "This Land Is Your Land"
    PERFORMER "Woody & Arlo Guthrie"
    INDEX 00 17:26:07
    INDEX 01 17:27:10
  TRACK 09 AUDIO
    TITLE "Over There(Live)"
    PERFORMER "James Cagney & Frances Langford"
    INDEX 00 19:57:37
    INDEX 01 19:59:02
  TRACK 10 AUDIO
    TITLE "The Armed Forces Medley"
    PERFORMER "The US Marine Band"
    INDEX 00 22:20:60
    INDEX 01 22:22:45
  TRACK 11 AUDIO
    TITLE "God Bless The USA"
    PERFORMER "Lee Greenwood"
    INDEX 00 26:03:72
    INDEX 01 26:06:50
  TRACK 12 AUDIO
    TITLE "Battle Hymn Of The Republic"
    PERFORMER "SheDaisy"
    INDEX 00 29:21:10
    INDEX 01 29:23:65
  TRACK 13 AUDIO
    TITLE "The Star Spangled Banner(Live)"
    PERFORMER "Marvin Gaye"
    INDEX 00 31:41:17
    INDEX 01 31:43:72
  TRACK 14 AUDIO
    TITLE "God Bless America"
    PERFORMER "Kate Smith"
    INDEX 00 34:50:20
    INDEX 01 34:52:72
  TRACK 15 AUDIO
    TITLE "My Country!'Tis of Thee"
    PERFORMER "Mormon Tabernacle Choir"
    INDEX 00 36:50:35
    INDEX 01 36:53:15

评分

参与人数 1威望积分 +500 风云金币 +2 收起 理由
爱的天堂 + 500 + 2 分享不易,加分支持

查看全部评分

回复

使用道具 举报

 楼主| 发表于 2015-8-3 17:45:44 | 显示全部楼层
美国的爱国主义到底是什么呢?
都在这里歌曲里了

当年买的打口碟,播放和抓轨都没有问题
追求完美的慎下


游客,如果您要查看本帖隐藏内容请回复
回复 支持 反对

使用道具 举报

发表于 2015-8-3 18:51:06 | 显示全部楼层
谢谢楼主分享
回复 支持 反对

使用道具 举报

发表于 2015-8-22 11:28:02 | 显示全部楼层
好音乐 谢谢楼主··········
回复 支持 反对

使用道具 举报

发表于 2015-8-24 20:16:45 | 显示全部楼层
喜欢楼主发布的好音乐,慢慢下载欣赏
回复 支持 反对

使用道具 举报

发表于 2015-8-27 10:17:25 | 显示全部楼层
好资源!我很需要呀,回帖支持
回复 支持 反对

使用道具 举报

发表于 2015-9-2 01:28:05 | 显示全部楼层
先支持楼主再慢慢下载,谢谢!
回复 支持 反对

使用道具 举报

发表于 2015-9-9 10:37:47 | 显示全部楼层
先支持楼主再慢慢下载,谢谢!
回复 支持 反对

使用道具 举报

发表于 2015-9-10 04:54:00 | 显示全部楼层
喜欢楼主发布的好音乐,慢慢下载欣赏
回复 支持 反对

使用道具 举报

发表于 2015-9-11 15:57:51 | 显示全部楼层
谢谢楼主啊!收藏了,好资源
回复 支持 反对

使用道具 举报

发表于 2015-9-12 15:38:02 | 显示全部楼层
制作得很不错楼主辛苦你了
回复 支持 反对

使用道具 举报

发表于 2015-9-13 08:08:40 | 显示全部楼层
美国的爱国歌曲手册?主旋律歌曲?下来听听,里边有首上帝保佑美国!
回复 支持 反对

使用道具 举报

发表于 2015-9-13 12:17:52 | 显示全部楼层
谢谢楼主哦 下载欣赏了
回复 支持 反对

使用道具 举报

发表于 2015-9-14 13:17:48 | 显示全部楼层
十分感谢楼主的辛苦制作分享
回复 支持 反对

使用道具 举报

发表于 2015-9-14 17:04:41 | 显示全部楼层
听起来感觉不错。谢谢分享...
回复 支持 反对

使用道具 举报

您需要登录后才可以回帖 登录 | 注册会员

本版积分规则

Archiver|手机版|联系我们|风云音乐谷 ( 粤ICP备09098429号-2 )  

GMT+8, 2018-11-13 10:12 , Processed in 0.198589 second(s), 20 queries .

Powered by Discuz! X3.4

© 2001-2017 Comsenz Inc.

快速回复 返回顶部 返回列表