设为首页收藏本站

风云音乐谷

 找回密码
 注册会员

QQ登录

只需一步,快速开始

扫一扫,访问微社区


【揭露淘宝、微商卖U盘音乐、无损碟片15条惊天骗术】     【无损音乐下载、检测、使用、播放必备四步】

破解奥迪、途锐U盘播放wav、dts音乐方法 显示歌手和歌名的CD、DTS CD无损碟片制作教程 一键制作AC3 Audio DVD杜比音乐碟片
一键制作U盘(SD卡、TF卡)无损音乐教程 任何车型播放wav、flac、ape、dts无损音乐方法 一键制作DTS Audio DVD无损音乐碟片
一键批量抓取SACD光盘ISO镜像曲目的方法 一键制作世界最顶级的DVD Audio无损音乐碟片 一键制作WAV Audio DVD无损音乐碟片
U盘、碟片播放5.1环绕声dts音乐方法总结 一键制作U盘dts、wav、flac、ape视频音乐教程 一键制作DVD图片(视频)MV音乐碟片教程
查看: 9033|回复: 308

[群星] [APE/整軌]Various - 音乐天堂vol64[百度雲/Tosea 原抓]

  [复制链接]
发表于 2015-8-3 17:57:22 | 显示全部楼层 |阅读模式

这么精彩的内容,您还在等什么呢?马上注册风云音乐谷查看完整内容

您需要 登录 才可以下载或查看,没有帐号?注册会员

x

IMG_0042.jpg

专辑英文名: MUSIC HEAVEN VOL.64
专辑中文名: 音乐天堂 VOL.64
歌手: 群星
发行时间: 2005年04月
地区: **
语言: 英语
简介:


☆ 彩页部分风云人物为世间一切高歌:二十年**不变的U2乐队星光永耀

☆ 美丽孤独者:Leonard Cohen

☆ 这个冬天的**暖意:荷兰爵士天后 Laurafygi I

☆ 时尚人物蜜桃奶油甜心,我的碗豆公主:澳洲**天后 Kyjie Minogue

☆ 用耳朵品尝的爱尔兰咖啡:爱尔兰之子 Brian McFadden

☆ 来自德国的蓝调女王:Sarah Connor

☆ 对话明星与三个娇娃的约会:Destiny's Child

☆ 典雅乡音爱琴之吻:古典美声 Mario Frangoulis

☆ 星光乍泄灵魂盛开若舞:忧郁才女 Sia Kate

专辑曲目:


01.Joss Stone:Daniel
02.Leonard Cohen:The Letters
03.Brain MoFadden: Sorry Love Daddy
04.Gwen Stefani:What Are You Waiting For
05.Mario Frangoulis:FollowYour Heart
06.Destiny's Child:If
07.Celine Dion My Precious One
08.U2:A Man And A Woman
09.Sia: Sunday
10.Delta Goodrem & Brain McFadden: Almost Here
11.Laura Fygi:The Very Best Time Of Year
12.Kyiie Minogue :Giving You Up
13.Sarah Connor:Music Is The Key
14.Elliott Smith:Twilight

评分

参与人数 1威望积分 +500 风云金币 +2 收起 理由
爱的天堂 + 500 + 2 分享不易,加分支持

查看全部评分

回复

使用道具 举报

 楼主| 发表于 2015-8-3 17:57:55 | 显示全部楼层
cue已编辑,如有错误,请多多指正

游客,如果您要查看本帖隐藏内容请回复
回复 支持 反对

使用道具 举报

 楼主| 发表于 2015-8-3 17:58:12 | 显示全部楼层
Exact Audio Copy V0.99 prebeta 3 from 28. July 2007

EAC 抓取日志文件从22. 八月 2009, 22:27

Various / music heaven 64

使用驱动器  :TSSTcorpCDDVDW TS-H653B   Adapter: 0  ID: 1

读取模式     : 保护
使用精确流   : 是
废除音频缓冲 : 否
使用 C2 指针 : 否

组合读/写偏移校正              : 0
读取 Lead-In 和 Lead-Out       : 否
用静音填充抓取中丢失偏移的采样 : 是
去除首尾静音块                 : 否
在 CRC 计算中使用了空样本      : 否
已用接口                       : Win NT 及 2000 本地 Win32 接口

所用输出格式 : 内部 WAV 函数
样本格式     : 44.100 Hz;16 Bit;立体声


被抓轨 CD 的 TOC

     音轨 |   开始   |   长度   | 起始扇区 | 结尾扇区
    --------------------------------------------------
       1  |  0:00.00 |  2:46.11 |       0  |   12460  
       2  |  2:46.11 |  4:50.02 |   12461  |   34212  
       3  |  7:36.13 |  3:58.63 |   34213  |   52125  
       4  | 11:35.01 |  3:43.48 |   52126  |   68898  
       5  | 15:18.49 |  4:03.59 |   68899  |   87182  
       6  | 19:22.33 |  4:17.68 |   87183  |  106525  
       7  | 23:40.26 |  3:54.52 |  106526  |  124127  
       8  | 27:35.03 |  4:32.05 |  124128  |  144532  
       9  | 32:07.08 |  4:19.32 |  144533  |  163989  
      10  | 36:26.40 |  3:50.34 |  163990  |  181273  
      11  | 40:16.74 |  2:49.29 |  181274  |  193977  
      12  | 43:06.28 |  3:32.73 |  193978  |  209950  
      13  | 46:39.26 |  4:06.00 |  209951  |  228400  
      14  | 50:45.26 |  4:30.50 |  228401  |  248700  


范围状态及错误

已选择范围

     文件名 G:\@__自抓\Various - music heaven 64.wav

     峰值电平 94.0 %
     范围质量 99.9 %
     复制 CRC 6B5FD230
     复制成功

没有错误发生

状态报告结尾
回复 支持 反对

使用道具 举报

发表于 2015-8-5 19:58:00 | 显示全部楼层
好艺术水平好东西就要顶
回复 支持 反对

使用道具 举报

发表于 2015-8-6 09:00:32 | 显示全部楼层
没想到  现在还能听到这东西!!!太好了!!!
回复 支持 反对

使用道具 举报

发表于 2015-8-9 10:45:35 | 显示全部楼层
谢谢楼主不停的分享!
回复 支持 反对

使用道具 举报

发表于 2015-8-10 07:46:25 | 显示全部楼层
先支持楼主再慢慢下载,谢谢!
回复 支持 反对

使用道具 举报

发表于 2015-8-12 22:37:58 | 显示全部楼层
听起来感觉不错。谢谢分享...
回复 支持 反对

使用道具 举报

发表于 2015-8-14 09:19:41 | 显示全部楼层
可惜听不懂啊,真的非常好的。
回复 支持 反对

使用道具 举报

发表于 2015-8-22 11:05:54 | 显示全部楼层
谢谢楼主谢谢楼主
回复 支持 反对

使用道具 举报

发表于 2015-8-29 00:37:21 | 显示全部楼层
喜欢楼主发布的好音乐,慢慢下载欣赏
回复 支持 反对

使用道具 举报

发表于 2015-9-10 07:07:53 | 显示全部楼层
听起来感觉不错。谢谢分享...
回复 支持 反对

使用道具 举报

发表于 2015-9-13 06:37:58 | 显示全部楼层
谢谢楼主哦 下载欣赏了
回复 支持 反对

使用道具 举报

发表于 2015-9-13 12:07:45 | 显示全部楼层
支持楼主发贴!这个我喜欢哦。
回复 支持 反对

使用道具 举报

发表于 2015-9-15 09:37:25 | 显示全部楼层
这个帖子真不错,感谢提供分享
回复 支持 反对

使用道具 举报

您需要登录后才可以回帖 登录 | 注册会员

本版积分规则

Archiver|手机版|联系我们|风云音乐谷 ( 粤ICP备09098429号-2 )  

GMT+8, 2018-6-23 12:15 , Processed in 0.100193 second(s), 20 queries .

Powered by Discuz! X3.4

© 2001-2017 Comsenz Inc.

快速回复 返回顶部 返回列表