设为首页收藏本站

风云音乐谷

 找回密码
 注册会员

QQ登录

只需一步,快速开始

扫一扫,访问微社区


【揭露淘宝、微商卖U盘音乐、无损碟片15条惊天骗术】     【无损音乐下载、检测、使用、播放必备四步】

破解奥迪、途锐U盘播放wav、dts音乐方法 显示歌手和歌名的CD、DTS CD无损碟片制作教程 一键制作AC3 Audio DVD杜比音乐碟片
一键制作U盘(SD卡、TF卡)无损音乐教程 任何车型播放wav、flac、ape、dts无损音乐方法 一键制作DTS Audio DVD无损音乐碟片
一键批量抓取SACD光盘ISO镜像曲目的方法 一键制作世界最顶级的DVD Audio无损音乐碟片 一键制作WAV Audio DVD无损音乐碟片
U盘、碟片播放5.1环绕声dts音乐方法总结 一键制作U盘dts、wav、flac、ape视频音乐教程 一键制作DVD图片(视频)MV音乐碟片教程
查看: 8671|回复: 322

[群星] [APE/整軌]Various - 音乐天堂vol70[百度雲/Tosea 原抓]

  [复制链接]
发表于 2015-8-3 18:07:36 | 显示全部楼层 |阅读模式

这么精彩的内容,您还在等什么呢?马上注册风云音乐谷查看完整内容

您需要 登录 才可以下载或查看,没有帐号?注册会员

x

IMG_0051.jpg IMG_0052.jpg IMG_0053.jpg



专辑英文名: Music Heaven Vol.70
专辑中文名: 音乐天堂(第70期)
歌手: Music Heaven
发行时间: 2006年
地区: **
语言: 英语
简介:

本期是2006年狗年新春第一期。
从本期开始,杂志的选歌范围大大拓宽:从爱尔兰到阿尔及利亚到佛得角、到古巴到西班牙、到法兰西到美利坚,再从英国到冰岛。一半是世界音乐和民族歌谣,一半是各式唯美感性、另类独立、淳朴率真的抒情摇滚,和城市民谣的仙音妙曲。


专辑曲目:


1 Claire Hamilton;Mana Na Heireann
2 Idir(&Karen Matheson):A Vana Inouva
3 Césaria évora:Petilt Pays
4 The Shamrock:Easy And Slow
5 Compay Segundo:Macusa
6 Luz Casal:Piensa en mi
7 The Chieftains:The Foggy Dew(with Sinead O'Connor)
8 Thomas Fersen:Deux Pieds
9 Kami Lyle:Mr.Moon
10 The Robot Ate ME:Just One Girl
11 **o for Pyros:Pets
12 Feeder:Tumble And Fall
13 Patricia Kaas:If You Go Away 与 Ne Me Quitte Pas - Nina Simone 同曲
14 Bjork:Big Time Sensuality(The Fluke Minimix)

评分

参与人数 1威望积分 +500 风云金币 +2 收起 理由
爱的天堂 + 500 + 2 分享不易,加分支持

查看全部评分

回复

使用道具 举报

 楼主| 发表于 2015-8-3 18:08:23 | 显示全部楼层




cue已编辑,如有错误,请多多指正
游客,如果您要查看本帖隐藏内容请回复
回复 支持 反对

使用道具 举报

 楼主| 发表于 2015-8-3 18:08:38 | 显示全部楼层

Exact Audio Copy V0.99 prebeta 3 from 28. July 2007

EAC 抓取日志文件从23. 八月 2009, 16:56

Various / 音乐天堂vol70

使用驱动器  :TSSTcorpCDDVDW TS-H653B   Adapter: 0  ID: 1

读取模式     : 保护
使用精确流   : 是
废除音频缓冲 : 否
使用 C2 指针 : 否

组合读/写偏移校正              : 0
读取 Lead-In 和 Lead-Out       : 否
用静音填充抓取中丢失偏移的采样 : 是
去除首尾静音块                 : 否
在 CRC 计算中使用了空样本      : 否
已用接口                       : Win NT 及 2000 本地 Win32 接口

所用输出格式 : 内部 WAV 函数
样本格式     : 44.100 Hz;16 Bit;立体声


被抓轨 CD 的 TOC

     音轨 |   开始   |   长度   | 起始扇区 | 结尾扇区
    --------------------------------------------------
       1  |  0:00.00 |  4:51.26 |       0  |   21850  
       2  |  4:51.26 |  4:27.30 |   21851  |   41905  
       3  |  9:18.56 |  3:46.71 |   41906  |   58926  
       4  | 13:05.52 |  3:50.21 |   58927  |   76197  
       5  | 16:55.73 |  4:22.19 |   76198  |   95866  
       6  | 21:18.17 |  4:29.21 |   95867  |  116062  
       7  | 25:47.38 |  5:22.47 |  116063  |  140259  
       8  | 31:10.10 |  3:03.65 |  140260  |  154049  
       9  | 34:14.00 |  4:27.30 |  154050  |  174104  
      10  | 38:41.30 |  3:42.30 |  174105  |  190784  
      11  | 42:23.60 |  3:38.55 |  190785  |  207189  
      12  | 46:02.40 |  4:21.43 |  207190  |  226807  
      13  | 50:24.08 |  4:29.00 |  226808  |  246982  
      14  | 54:53.08 |  4:09.37 |  246983  |  265694  


范围状态及错误

已选择范围

     文件名 G:\@__自抓\Various - 音乐天堂vol70.wav

     峰值电平 100.0 %
     范围质量 100.0 %
     复制 CRC B1823E6C
     复制成功

没有错误发生

状态报告结尾
回复 支持 反对

使用道具 举报

发表于 2015-8-3 19:24:03 | 显示全部楼层
谢谢楼主分享 收藏了
回复 支持 反对

使用道具 举报

发表于 2015-8-5 19:53:59 | 显示全部楼层
好艺术水平好盎司
回复 支持 反对

使用道具 举报

发表于 2015-8-6 09:02:41 | 显示全部楼层
没想到  现在还能听到这东西!!!太好了!!!
回复 支持 反对

使用道具 举报

发表于 2015-8-9 10:29:08 | 显示全部楼层
从本期开始,杂志的选歌范围大大拓宽,也是整个欧洲啊。
回复 支持 反对

使用道具 举报

发表于 2015-8-14 07:32:57 | 显示全部楼层
世界音乐之旅,了不起。
回复 支持 反对

使用道具 举报

发表于 2015-8-17 16:03:58 | 显示全部楼层
陈年美酒。细细品尝。
回复 支持 反对

使用道具 举报

发表于 2015-8-22 11:01:28 | 显示全部楼层
好东西 谢谢分享··
回复 支持 反对

使用道具 举报

发表于 2015-9-2 08:37:30 | 显示全部楼层
听起来感觉不错。谢谢分享...
回复 支持 反对

使用道具 举报

发表于 2015-9-10 07:18:00 | 显示全部楼层
在此对楼主说声谢谢呀,我要下载这个了
回复 支持 反对

使用道具 举报

发表于 2015-9-10 22:18:03 | 显示全部楼层
在此对楼主说声谢谢呀,我要下载这个了
回复 支持 反对

使用道具 举报

发表于 2015-9-11 06:07:40 | 显示全部楼层
听起来感觉不错。谢谢分享...
回复 支持 反对

使用道具 举报

发表于 2015-9-13 08:27:51 | 显示全部楼层
听起来感觉不错。谢谢分享...
回复 支持 反对

使用道具 举报

您需要登录后才可以回帖 登录 | 注册会员

本版积分规则

Archiver|手机版|联系我们|风云音乐谷 ( 粤ICP备09098429号-2 )  

GMT+8, 2018-6-24 07:12 , Processed in 0.096525 second(s), 23 queries .

Powered by Discuz! X3.4

© 2001-2017 Comsenz Inc.

快速回复 返回顶部 返回列表