设为首页收藏本站

风云音乐谷

 找回密码
 注册会员

QQ登录

只需一步,快速开始

扫一扫,访问微社区


【揭露淘宝、微商卖U盘音乐、无损碟片15条惊天骗术】     【无损音乐下载、检测、使用、播放必备四步】

破解奥迪、途锐U盘播放wav、dts音乐方法 显示歌手和歌名的CD、DTS CD无损碟片制作教程 一键制作AC3 Audio DVD杜比音乐碟片
一键制作U盘(SD卡、TF卡)无损音乐教程 任何车型播放wav、flac、ape、dts无损音乐方法 一键制作DTS Audio DVD无损音乐碟片
一键批量抓取SACD光盘ISO镜像曲目的方法 一键制作世界最顶级的DVD Audio无损音乐碟片 一键制作WAV Audio DVD无损音乐碟片
U盘、碟片播放5.1环绕声dts音乐方法总结 一键制作U盘dts、wav、flac、ape视频音乐教程 一键制作DVD图片(视频)MV音乐碟片教程
查看: 2404|回复: 35

[粤剧辑] 【84670614原抓·WAV】群 星【粵劇精英(經典唱腔名曲精選2-2)】專輯【百度網盤】

  [复制链接]
发表于 2015-10-31 04:08:10 | 显示全部楼层 |阅读模式

这么精彩的内容,您还在等什么呢?马上注册风云音乐谷查看完整内容

您需要 登录 才可以下载或查看,没有帐号?注册会员

x
【自抓·WAV】群   星【粵劇精英(經典唱腔名曲精選2-2)】專輯【百度網盤】

資源名稱:搜書院(下集)

藝術大師:馬師曾+紅線女+呂玉郎
演奏樂隊:廣東粵劇院樂隊+廣州樂友聯誼會
資源來源:CD自抓
出版發行:中國唱片廣州公司
資源時長:65:37
專輯曲目:
        01.書房相會(下)
        02.鎮台搜院
        03.比翼雙飛

本資源是本人一手自抓,壓縮包內有大圖若干,並添加了百分之三的恢復記錄。謝謝大家的欣賞!

粵劇·搜書院簡介:資料來自百度,多謝原作者!
    搜書院是流傳在海南的著名故事,著名瓊劇劇碼。  據傳謝寶掌教瓊台書院的清雍正、乾隆年間,在這裏發生過“搜書院”的動人故事:門生張日曼遊覽軍坡拾到金釵一枝,歸院路上遇到前來為鎮台愛妾尋找丟金釵的婢女紫英。張將金釵交還,並對紫英的僕婢生活深表同情。紫英為日曼的人品所感動,張日曼欽佩紫英的聰敏。於是,兩人互表愛慕。鎮台知情後,欲強娶紫英為小妄,紫英不從,慘遭毒打,逃人書院找張日曼求救。鎮台派兵包圍書院,書院掌教謝寶出於義憤,以自己坐轎底格藏紫英出圍,擺下“空城計”,使鎮台搜查書院撲空一場。紫英脫險後,幾經周折,終於和張日曼結成眷屬。此故事在民間流傳二百多年,五十年代,海南瓊劇界將之編寫為《搜書院》瓊劇劇本,由瓊劇著名表演藝術家黃文、陳華、紅梅主演,深受海南人民歡迎。後來,《搜書院》被移植改編為粵劇劇本,經粵劇著名表演藝術家馬師曾、紅線女主演並搬上銀幕。於是,瓊台書院蜚聲海內外,引來中外遊客絡繹不絕。

1_副本.jpg
02_副本.jpg
群  星【粵劇精英(經典唱腔名曲精選2-2)】光碟_副本.jpg
群  星【粵劇精英(經典唱腔名曲精選2-2)】内圈_副本.jpg
抓軌捕獲 1.jpg
抓軌捕獲 2.jpg
抓軌捕獲 3.jpg
抓軌捕獲 4.jpg
13_副本.jpg
14_副本.jpg
資源上傳中.JPG

抓取日誌:
EAC 抓取日志文件从22. 七月 2013, 15:55 用于 CD
馬師曾+紅線女+呂玉郎 / 搜書院(下集)
使用驱动器  :TEAC    CD-W540E   Adapter: 0  ID: 1
读取模式    :不使用 C2,使用精确流, 禁用缓存的安全模式
读取偏移校正:686
读取 Lead-In 和 Lead-Out : 否
所用输出模式:内部 WAV 函数
                     44.100 Hz;16 Bit;立体声
其他选项    :
    用静音填充抓取中丢失偏移的采样 : 是
    去除首尾静音块 : 否
    Win NT 及 2000 本地 Win32 接口

范围状态及错误
已选择范围
     文件名 J:\84670614抓轨\群  星【粵劇精英(經典唱腔名曲精選2-2)】專輯.wav
     峰值电平 85.9 %
     范围质量 100.0 %
     CRC 973991C3
     复制成功
没有错误发生
状态报告结尾

索引文件:
PERFORMER "馬師曾+紅線女+呂玉郎"
TITLE "搜書院(下集)"
FILE "群  星【粵劇精英(經典唱腔名曲精選2-2)】專輯.wav" WAVE
  TRACK 01 AUDIO
    TITLE "書房相會(下)"
    PERFORMER "馬師曾+紅線女+呂玉郎"
    FLAGS DCP
    INDEX 01 00:00:00
  TRACK 02 AUDIO
    TITLE "鎮台搜院"
    PERFORMER "馬師曾+紅線女+呂玉郎"
    FLAGS DCP
    INDEX 00 10:10:56
    INDEX 01 10:15:56
  TRACK 03 AUDIO
    TITLE "比翼雙飛"
    PERFORMER "馬師曾+紅線女+呂玉郎"
    FLAGS DCP
    INDEX 00 50:33:33
    INDEX 01 50:38:33

下載地址:

游客,如果您要查看本帖隐藏内容请回复


解壓密碼
群 星【粵劇精英(經典唱腔名曲精選2-2)】密碼.rar (185 Bytes, 下载次数: 81)

评分

参与人数 1威望积分 +500 风云金币 +5 收起 理由
爱的天堂 + 500 + 5 稀有资源,感谢分享

查看全部评分

回复

使用道具 举报

发表于 2015-10-31 13:42:22 | 显示全部楼层
楼主辛苦了,请继续,谢分享。
回复 支持 1 反对 0

使用道具 举报

发表于 2015-10-31 17:23:10 | 显示全部楼层
小时候听的是录音带的。
回复 支持 1 反对 0

使用道具 举报

 楼主| 发表于 2015-10-31 18:08:45 来自手机 | 显示全部楼层
pdk1965 发表于 2015-10-31 17:23
小时候听的是录音带的。

录音带好呀, 我仲收藏有几百饼呢!
UC_Photo_031.jpg
回复 支持 0 反对 1

使用道具 举报

发表于 2015-10-31 21:16:27 | 显示全部楼层
84670614 发表于 2015-10-31 18:08
录音带好呀, 我仲收藏有几百饼呢!

厉害!我搬了几次家,都弄丢了。
回复 支持 1 反对 0

使用道具 举报

 楼主| 发表于 2015-10-31 21:54:47 | 显示全部楼层
pdk1965 发表于 2015-10-31 21:16
厉害!我搬了几次家,都弄丢了。

喜歡,冇辦法!
回复 支持 0 反对 1

使用道具 举报

发表于 2015-11-1 21:23:45 | 显示全部楼层
新鲜出炉,多谢楼主无私分享。
回复 支持 0 反对 1

使用道具 举报

发表于 2015-11-2 22:46:42 | 显示全部楼层
家里的录音带保存不善,不知道还能不能播放了。
回复 支持 1 反对 0

使用道具 举报

发表于 2015-11-3 19:42:19 | 显示全部楼层
書房相會原来是为了比翼雙飛。
回复 支持 1 反对 0

使用道具 举报

发表于 2015-11-11 10:22:55 | 显示全部楼层
楼主辛苦了,请继续,老界谢谢分享。
回复 支持 1 反对 0

使用道具 举报

 楼主| 发表于 2015-11-11 10:51:03 来自手机 | 显示全部楼层
轻舟 发表于 2015-11-2 22:46
家里的录音带保存不善,不知道还能不能播放了。

我有饼78年嘅香港娱乐唱片公司出的《紫钗记》, 2家都可以正常播放。录音带最怕就係回南天, 我用防潮箱装着的!
回复 支持 0 反对 1

使用道具 举报

发表于 2015-11-11 15:33:05 来自手机 | 显示全部楼层
多谢楼主分享,有你论坛更精彩
回复 支持 0 反对 1

使用道具 举报

发表于 2015-11-28 15:51:39 | 显示全部楼层
声音特有穿透力,我很喜欢的一个歌手
回复 支持 1 反对 0

使用道具 举报

发表于 2015-12-8 11:38:52 | 显示全部楼层
请继续,谢分享,,,,,,,,,,,,,
回复 支持 0 反对 1

使用道具 举报

发表于 2015-12-23 10:07:23 | 显示全部楼层
感谢楼主分享发烧音乐资源
回复 支持 1 反对 0

使用道具 举报

您需要登录后才可以回帖 登录 | 注册会员

本版积分规则

Archiver|手机版|联系我们|风云音乐谷 ( 粤ICP备09098429号-2 )  

GMT+8, 2018-7-20 20:53 , Processed in 0.102100 second(s), 20 queries .

Powered by Discuz! X3.4

© 2001-2017 Comsenz Inc.

快速回复 返回顶部 返回列表