设为首页收藏本站

风云音乐谷

 找回密码
 注册会员

QQ登录

只需一步,快速开始

扫一扫,访问微社区


【揭露淘宝、微商卖U盘音乐、无损碟片15条惊天骗术】     【无损音乐下载、检测、使用、播放必备四步】

破解奥迪、途锐U盘播放wav、dts音乐方法 显示歌手和歌名的CD、DTS CD无损碟片制作教程 一键制作AC3 Audio DVD杜比音乐碟片
一键制作U盘(SD卡、TF卡)无损音乐教程 任何车型播放wav、flac、ape、dts无损音乐方法 一键制作DTS Audio DVD无损音乐碟片
一键批量抓取SACD光盘ISO镜像曲目的方法 一键制作世界最顶级的DVD Audio无损音乐碟片 一键制作WAV Audio DVD无损音乐碟片
U盘、碟片播放5.1环绕声dts音乐方法总结 一键制作U盘dts、wav、flac、ape视频音乐教程 一键制作DVD图片(视频)MV音乐碟片教程
查看: 2249|回复: 31

[粤剧辑] 【84670614原抓·WAV】紅線女+馬師曾【粵劇·關漢卿(上)】專輯【百度網盤】

  [复制链接]
发表于 2015-10-31 13:24:58 | 显示全部楼层 |阅读模式

这么精彩的内容,您还在等什么呢?马上注册风云音乐谷查看完整内容

您需要 登录 才可以下载或查看,没有帐号?注册会员

x
【自抓·WAV】紅線女+馬師曾【粵劇·關漢卿(上)】專輯【百度網盤】
資源名稱:關漢卿(上)
藝術大師:紅線女+馬師曾+文覺非+林小群
資源來源:CD自抓
出版發行:中國唱片廣州公司

特別說明:本碟係歷史性錄音,且電平奇低(看抓軌記錄),不過就係非常經典嘅一部大戲(同搜書院齊名),當年還拍成電影在全國各地放映。不喜勿下,謝謝!
畫外音:本人自幼受家父影響,一直對粵曲+粵劇都喜愛有加,這段時間我會陸續發布大概十幾廿個有關粵劇嘅資源,謝謝欣賞!

粵劇 關漢卿 簡介:
來自百度,多謝原作者!
剧本简介
  粤剧《关汉卿》创作于1956年,剧本系田汉先生所作。全剧以写作和上演《窦娥冤》的过程为主要线索,高度概括了元代社会的黑暗现实,突出塑造了关汉卿为民伸张正义,刚毅不屈的伟大形象。该剧由马师曾、红线女演出后,成为当时引起轰动的马红经典剧目,剧组还曾受命进京献演,受到禁用词语、周恩来、朱德在内的党和国家领导人的肯定。但1956年后,该剧便绝迹羊城舞台。直到2005年才由广州红豆粤剧团重演。
  剧情梗概
  元代大戏剧家关汉卿同情一个含冤被斩的弱女子,挺身仗义执言,写下《窦娥冤》一剧,控诉黑暗残暴的**统治,触怒了权臣阿合马。阿合马命令关汉卿按照他的要求修改词曲,被关汉卿坚决拒绝,因而被下大狱。演窦娥的歌妓朱帘秀也一同被押,演蔡婆婆的赛帘秀还被残忍地挖去眼睛。此事使得群情激奋。
  义士王着刺死恶贼阿合马,但关汉卿仍被统治者驱逐南下,朱帘秀在狱中许下与关汉卿双飞之愿,但为当时残酷的律法所不容,二人只得在卢沟挢畔悲歌话别。
  主要演员
   著名演员马师曾饰关汉卿,红线女饰朱帘秀。马师曾在剧中塑造了关汉卿风流潇洒、热情奔放、愤世嫉俗的光辉形像,并成为他一生最后的佳作。红线女所扮朱帘秀在狱中高歌的《蝶双飞》,被称为“田词红腔,一曲难忘”。

本資源保證是本人一手自抓,壓縮包內有大圖若干,並添加了百分之三的恢復記錄。謝謝大家的欣賞!

粵劇名家經典一- 1封面_副本.jpg
粵劇名家經典一- 1封底_副本.jpg
粵劇名家經典一- 1光碟_副本.jpg
粵劇名家經典一歌詞A_副本.jpg
粵劇名家經典一歌詞B_副本.jpg
1.jpg
2.jpg
3.jpg
4.jpg
5.jpg
6.jpg
上傳中.JPG

抓取日誌:
EAC 抓取日志文件从27. 七月 2013, 13:11 用于 CD
紅線女+馬師曾 / 關漢卿(上)
使用驱动器  :SONY    DVD-ROM DDU1621   Adapter: 0  ID: 0
读取模式    :不使用 C2,使用精确流, 禁用缓存的安全模式
读取偏移校正:594
读取 Lead-In 和 Lead-Out : 否
所用输出模式:内部 WAV 函数
                     44.100 Hz;16 Bit;立体声
其他选项    :
    用静音填充抓取中丢失偏移的采样 : 是
    去除首尾静音块 : 否
    Win NT 及 2000 本地 Win32 接口

范围状态及错误
已选择范围
     文件名 J:\84670614抓轨\紅線女+馬師曾【關漢卿(上)】專輯.wav
     峰值电平 44.7 %
     范围质量 100.0 %
     CRC 57DD0BF2
     复制成功
没有错误发生
状态报告结尾

索引文件:
PERFORMER "紅線女+馬師曾"
TITLE "關漢卿(上)"
FILE "紅線女+馬師曾【關漢卿(上)】專輯.wav" WAVE
  TRACK 01 AUDIO
    TITLE "第一場"
    PERFORMER "紅線女+馬師曾"
    INDEX 01 00:00:00
  TRACK 02 AUDIO
    TITLE "第二場"
    PERFORMER "紅線女+馬師曾"
    INDEX 01 08:38:47
  TRACK 03 AUDIO
    TITLE "第三場"
    PERFORMER "紅線女+馬師曾"
    INDEX 01 24:14:05
  TRACK 04 AUDIO
    TITLE "第四場"
    PERFORMER "紅線女+馬師曾"
    INDEX 01 49:15:12

下載地址:

游客,如果您要查看本帖隐藏内容请回复


粵劇名家經典一(1)密碼.rar (129 Bytes, 下载次数: 71)

评分

参与人数 1威望积分 +500 风云金币 +5 收起 理由
爱的天堂 + 500 + 5 分享不易,加分支持

查看全部评分

回复

使用道具 举报

 楼主| 发表于 2015-10-31 13:36:21 | 显示全部楼层
響應『樂東』同學號召,大家將自己私藏的粵曲粵劇資源共享吧!
回复 支持 反对

使用道具 举报

发表于 2015-10-31 16:17:08 | 显示全部楼层
楼主辛苦了,请继续,谢分享。
回复 支持 反对

使用道具 举报

发表于 2015-10-31 17:17:02 | 显示全部楼层
小时候经常听,好曲。
回复 支持 反对

使用道具 举报

发表于 2015-11-1 15:19:52 | 显示全部楼层
本帖最后由 gzzwsy 于 2015-11-1 15:21 编辑

楼主,打开上集内容,标称为:1、2、3、4场,而封面说明系:1、2、4、5场,没有第三场。是否搞错了? 关.jpg
不过,还是要多谢楼主,辛苦了!
回复 支持 反对

使用道具 举报

发表于 2015-11-1 19:21:11 | 显示全部楼层
著名演员红线女饰朱帘,秀马师曾饰关汉卿。
回复 支持 反对

使用道具 举报

发表于 2015-11-2 06:48:00 | 显示全部楼层
楼主辛苦了,感谢楼主的分享。
回复 支持 反对

使用道具 举报

 楼主| 发表于 2015-11-2 08:34:32 来自手机 | 显示全部楼层
gzzwsy 发表于 2015-11-1 15:19
楼主,打开上集内容,标称为:1、2、3、4场,而封面说明系:1、2、4、5场,没有第三场。是否搞错了?
不过 ...

这个应该是中唱广州分公司的问题, 话说现在的东西都…!
回复 支持 反对

使用道具 举报

发表于 2015-11-2 10:21:54 | 显示全部楼层
楼主辛苦了,谢分享。
回复 支持 反对

使用道具 举报

发表于 2015-11-2 23:52:00 | 显示全部楼层
好怀念啊,小时候经常和爷爷一起听的。
回复 支持 反对

使用道具 举报

发表于 2015-11-10 20:09:45 | 显示全部楼层
谢谢楼主的热心分享。
回复 支持 反对

使用道具 举报

发表于 2015-11-11 15:41:48 来自手机 | 显示全部楼层
多谢楼主分享,非常棒的资源
回复 支持 反对

使用道具 举报

发表于 2015-11-28 15:47:24 | 显示全部楼层
最新新音乐发烧大碟,配器精准,新技精心制作。曲曲动听,收藏珍品。感谢分享!
回复 支持 反对

使用道具 举报

发表于 2015-12-7 15:49:03 | 显示全部楼层
紅線女+馬師曾,两位都是大线人。
回复 支持 反对

使用道具 举报

发表于 2015-12-25 11:02:39 | 显示全部楼层
楼主辛苦了,感谢楼主的分享。
回复 支持 反对

使用道具 举报

您需要登录后才可以回帖 登录 | 注册会员

本版积分规则

Archiver|手机版|联系我们|风云音乐谷 ( 粤ICP备09098429号-2 )  

GMT+8, 2018-6-25 18:22 , Processed in 0.101685 second(s), 23 queries .

Powered by Discuz! X3.4

© 2001-2017 Comsenz Inc.

快速回复 返回顶部 返回列表