设为首页收藏本站

风云音乐谷

 找回密码
 注册会员

QQ登录

只需一步,快速开始

扫一扫,访问微社区


【揭露淘宝、微商卖U盘音乐、无损碟片15条惊天骗术】     【无损音乐下载、检测、使用、播放必备四步】

破解奥迪、途锐U盘播放wav、dts音乐方法 显示歌手和歌名的CD、DTS CD无损碟片制作教程 一键制作AC3 Audio DVD杜比音乐碟片
一键制作U盘(SD卡、TF卡)无损音乐教程 任何车型播放wav、flac、ape、dts无损音乐方法 一键制作DTS Audio DVD无损音乐碟片
一键批量抓取SACD光盘ISO镜像曲目的方法 一键制作世界最顶级的DVD Audio无损音乐碟片 一键制作WAV Audio DVD无损音乐碟片
U盘、碟片播放5.1环绕声dts音乐方法总结 一键制作U盘dts、wav、flac、ape视频音乐教程 一键制作DVD图片(视频)MV音乐碟片教程
查看: 3115|回复: 45

[粤剧辑] 【84670614自抓·WAV】林錦屏【織女思凡】專輯【百度網盤】

  [复制链接]
发表于 2015-11-14 21:13:26 | 显示全部楼层 |阅读模式

这么精彩的内容,您还在等什么呢?马上注册风云音乐谷查看完整内容

您需要 登录 才可以下载或查看,没有帐号?注册会员

x

【84670614自抓·WAV】林錦屏【織女思凡】專輯【百度網盤】

資源名稱:粵劇精英
藝術大師:林錦屏
資源來源:自購CD自抓
出版發行:中國唱片廣州公司
專輯曲目:
        01.虞姬巡營
        02.碧容祭奠
        03.織女思凡
        04.鶯鶯閏怨
資源封面
林錦屏【織女思凡】封面_副本.jpg
資源封底
林錦屏【織女思凡】封底_副本.jpg
抓軌日記
PERFORMER "林錦屏"
TITLE "粵劇精英【經典唱腔名曲精選(三)】专辑"
FILE "粵劇精英【經典唱腔名曲精選(三)】专辑.wav" WAVE
  TRACK 01 AUDIO
    TITLE "虞姬巡營"
    PERFORMER "林錦屏"
    INDEX 01 00:00:00
  TRACK 02 AUDIO
    TITLE "碧容祭奠"
    PERFORMER "林錦屏"
    INDEX 00 15:37:37
    INDEX 01 15:39:45
  TRACK 03 AUDIO
    TITLE "織女思凡"
    PERFORMER "林錦屏"
    INDEX 00 24:33:15
    INDEX 01 24:37:17
  TRACK 04 AUDIO
    TITLE "鶯鶯閏怨"
    PERFORMER "林錦屏"
    INDEX 00 35:58:67
    INDEX 01 36:00:40
資源鏈接
游客,如果您要查看本帖隐藏内容请回复

解壓密碼
林錦屏【織女思凡】密碼.rar (207 Bytes, 下载次数: 105)

评分

参与人数 1威望积分 +500 风云金币 +5 收起 理由
爱的天堂 + 500 + 5 稀有资源,感谢分享

查看全部评分

回复

使用道具 举报

 楼主| 发表于 2015-11-14 21:17:06 来自手机 | 显示全部楼层
本帖最后由 84670614 于 2015-11-15 11:31 编辑

再上碟片图, 谢谢欣赏!
IMG_20151115_112008.jpg
回复 支持 反对

使用道具 举报

发表于 2015-11-14 21:18:55 | 显示全部楼层
又有得听,真好!
回复 支持 反对

使用道具 举报

发表于 2015-11-14 22:11:30 | 显示全部楼层
谢谢楼主分享!




.
回复 支持 反对

使用道具 举报

 楼主| 发表于 2015-11-14 22:15:30 来自手机 | 显示全部楼层
碟片放在光驱忘记拿去扫描, 将就下啦!

点评

虽然我很少欣赏戏曲碟片,但是朋友们的热心分享我还是由衷的感谢  详情 回复 发表于 2015-11-14 22:22
回复 支持 反对

使用道具 举报

发表于 2015-11-14 22:22:56 | 显示全部楼层
84670614 发表于 2015-11-14 22:15
碟片放在光驱忘记拿去扫描, 将就下啦!

虽然我很少欣赏戏曲碟片,但是朋友们的热心分享我还是由衷的感谢
回复 支持 反对

使用道具 举报

 楼主| 发表于 2015-11-14 22:30:58 来自手机 | 显示全部楼层
树欲静 发表于 2015-11-14 22:22
虽然我很少欣赏戏曲碟片,但是朋友们的热心分享我还是由衷的感谢

众人拾柴火焰高, 人人都献出一分爱!
回复 支持 反对

使用道具 举报

 楼主| 发表于 2015-11-14 22:41:40 | 显示全部楼层
树欲静 发表于 2015-11-14 22:22
虽然我很少欣赏戏曲碟片,但是朋友们的热心分享我还是由衷的感谢

今日掃描、抓軌了好幾張,就是上傳太慢了,漸漸來吧!

1114.jpg
无标题.jpg

点评

50K的速度大概一盘需要3小时左右,辛苦了  详情 回复 发表于 2015-11-14 23:47
回复 支持 反对

使用道具 举报

发表于 2015-11-14 23:47:35 | 显示全部楼层
84670614 发表于 2015-11-14 22:41
今日掃描、抓軌了好幾張,就是上傳太慢了,漸漸來吧!

50K的速度大概一盘需要3小时左右,辛苦了
回复 支持 反对

使用道具 举报

发表于 2015-11-15 00:12:17 | 显示全部楼层
终于又返嚟发粤曲了,真好,谢楼主分享。
回复 支持 反对

使用道具 举报

发表于 2015-11-15 09:29:33 | 显示全部楼层
谢谢楼主分享!真好!


回复 支持 反对

使用道具 举报

 楼主| 发表于 2015-11-15 09:52:04 | 显示全部楼层
树欲静 发表于 2015-11-14 23:47
50K的速度大概一盘需要3小时左右,辛苦了

謝謝版主的回覆!
8M的電信寬帶,上傳就這個樣子,沒事的,慢慢來吧!
回复 支持 反对

使用道具 举报

发表于 2015-11-15 11:02:26 | 显示全部楼层
回复欣赏,感谢分享。
回复 支持 反对

使用道具 举报

 楼主| 发表于 2015-11-15 11:17:24 | 显示全部楼层
抓軌日志
EAC 抓取日志文件从3. 十一月 2015, 13:22 用于 CD
林錦屏 / 粵劇精英【經典唱腔名曲精選(三)】专辑

使用驱动器  :HL-DT-STDVDROM DH60N   Adapter: 0  ID: 0
读取模式    :快速
读取偏移校正:0
读取 Lead-In 和 Lead-Out : 否

所用输出模式:内部 WAV 函数
                     44.100 Hz;16 Bit;立体声

其他选项    :
    用静音填充抓取中丢失偏移的采样 : 是
    去除首尾静音块 : 否
    Win NT 及 2000 本地 Win32 接口


范围状态及错误
已选择范围
     文件名 C:\84670614抓軌專用\粵劇精英【經典唱腔名曲精選(三)】专辑.wav

     峰值电平 74.9 %
     CRC 90BA7EEF
     复制成功

没有错误发生

状态报告结尾
回复 支持 反对

使用道具 举报

发表于 2015-11-15 11:24:35 | 显示全部楼层
谢谢分享,谢谢分享。
回复 支持 反对

使用道具 举报

您需要登录后才可以回帖 登录 | 注册会员

本版积分规则

Archiver|手机版|联系我们|风云音乐谷 ( 粤ICP备09098429号-2 )  

GMT+8, 2018-8-17 03:42 , Processed in 0.089772 second(s), 20 queries .

Powered by Discuz! X3.4

© 2001-2017 Comsenz Inc.

快速回复 返回顶部 返回列表