设为首页收藏本站

风云音乐谷

 找回密码
 注册会员

QQ登录

只需一步,快速开始

扫一扫,访问微社区


【揭露淘宝、微商卖U盘音乐、无损碟片15条惊天骗术】     【无损音乐下载、检测、使用、播放必备四步】

破解奥迪、途锐U盘播放wav、dts音乐方法 显示歌手和歌名的CD、DTS CD无损碟片制作教程 一键制作AC3 Audio DVD杜比音乐碟片
一键制作U盘(SD卡、TF卡)无损音乐教程 任何车型播放wav、flac、ape、dts无损音乐方法 一键制作DTS Audio DVD无损音乐碟片
一键批量抓取SACD光盘ISO镜像曲目的方法 一键制作世界最顶级的DVD Audio无损音乐碟片 一键制作WAV Audio DVD无损音乐碟片
U盘、碟片播放5.1环绕声dts音乐方法总结 一键制作U盘dts、wav、flac、ape视频音乐教程 一键制作DVD图片(视频)MV音乐碟片教程
查看: 2965|回复: 46

[粤剧辑] 【84670614自抓·WAV】红线女【粤曲粤剧唱腔精选之山乡风云(上)】專輯【百度網盤】

  [复制链接]
发表于 2015-11-18 05:57:41 | 显示全部楼层 |阅读模式

这么精彩的内容,您还在等什么呢?马上注册风云音乐谷查看完整内容

您需要 登录 才可以下载或查看,没有帐号?注册会员

x
【自抓·WAV】红线女【粤曲粤剧唱腔精选之山乡风云(上)】專輯【百度網盤】
資源名稱:粤曲粤剧唱腔精选
藝術大師:红线女+罗品超+文觉非+罗家宝等
資源來源:自購CD自抓
出版發行:中國唱片廣州公司
專輯曲目:
REM DISCID 1F113F04
REM COMMENT "ExactAudioCopy v0.99pb4"
PERFORMER "红线女+罗品超+文觉非+罗家宝"
TITLE "山乡风云(上)"
FILE "红线女+罗品超+文觉非+罗家宝 - 山乡风云(上).wav" WAVE
  TRACK 01 AUDIO
    TITLE "第一场"
    PERFORMER "红线女+罗品超+文觉非+罗家宝"
    FLAGS DCP
    INDEX 01 00:00:00
  TRACK 02 AUDIO
    TITLE "第二场"
    PERFORMER "红线女+罗品超+文觉非+罗家宝"
    FLAGS DCP
    INDEX 00 07:17:61
    INDEX 01 07:19:61
  TRACK 03 AUDIO
    TITLE "第三场"
    PERFORMER "红线女+罗品超+文觉非+罗家宝"
    FLAGS DCP
    INDEX 00 22:27:66
    INDEX 01 22:29:66
  TRACK 04 AUDIO
    TITLE "第四场"
    PERFORMER "红线女+罗品超+文觉非+罗家宝"
    FLAGS DCP
    INDEX 00 52:00:30
    INDEX 01 52:02:30
抓取日誌
Exact Audio Copy V0.99 prebeta 4 from 23. January 2008
EAC 抓取日志文件从14. 十一月 2015, 10:49
红线女+罗品超+文觉非+罗家宝 / 山乡风云(上)
使用驱动器  :PLDS    DVDROM DH16D7SH   Adapter: 2  ID: 0
读取模式 : 快速
读取偏移校正                   : 0
读取 Lead-In 和 Lead-Out       : 否
用静音填充抓取中丢失偏移的采样 : 是
去除首尾静音块                 : 否
在 CRC 计算中使用了空样本      : 否
已用接口                       : Win NT 及 2000 本地 Win32 接口
所用输出格式 : 内部 WAV 函数
样本格式     : 44.100 Hz;16 Bit;立体声

被抓轨 CD 的 TOC
     音轨 |   开始   |   长度   | 起始扇区 | 结尾扇区
    --------------------------------------------------
       1  |  0:00.00 |  7:19.61 |       0  |   32985  
       2  |  7:19.61 | 15:10.05 |   32986  |  101240  
       3  | 22:29.66 | 29:32.39 |  101241  |  234179  
       4  | 52:02.30 | 21:33.33 |  234180  |  331187  

范围状态及错误
已选择范围
     文件名 C:\84670614抓轨专用文件夹\红线女+罗品超+文觉非+罗家宝 - 山乡风云(上).wav
     峰值电平 97.7 %
     复制 CRC 7F1A41BB
     复制成功
没有错误发生
状态报告结尾
红线女 - 粤曲粤剧唱腔精选 封套1.jpg
红线女 - 粤曲粤剧唱腔精选 封套2.jpg
山乡风云(上)_副本.jpg
鏈接
游客,如果您要查看本帖隐藏内容请回复

密碼
山乡风云(上) - 密碼.rar (127 Bytes, 下载次数: 126)

评分

参与人数 1威望积分 +500 风云金币 +5 收起 理由
爱的天堂 + 500 + 5 分享不易,加分支持

查看全部评分

回复

使用道具 举报

发表于 2015-11-18 15:17:14 | 显示全部楼层
多谢楼主,耳福有你真不薄。
回复 支持 反对

使用道具 举报

 楼主| 发表于 2015-11-18 18:08:35 | 显示全部楼层
您好:補上log
山乡风云(上)log.rar (834 Bytes, 下载次数: 20)
回复 支持 反对

使用道具 举报

发表于 2015-11-18 20:59:01 | 显示全部楼层
听戏听全套,收了。
回复 支持 反对

使用道具 举报

发表于 2015-11-18 21:23:09 | 显示全部楼层
谢谢分享,谢谢分享。
回复 支持 反对

使用道具 举报

发表于 2015-11-19 00:17:58 | 显示全部楼层
每晚必有新粤剧新资料发送,谢楼主分享
回复 支持 反对

使用道具 举报

发表于 2015-11-19 14:14:41 | 显示全部楼层
多谢楼主,耳福有你真不薄。
回复 支持 反对

使用道具 举报

发表于 2015-11-20 12:57:12 | 显示全部楼层
本帖最后由 weidabang 于 2017-8-29 14:14 编辑

谢楼主分享.






.
回复 支持 反对

使用道具 举报

 楼主| 发表于 2015-11-20 13:51:51 来自手机 | 显示全部楼层
weidabang 发表于 2015-11-20 12:57
来自网页 复制转存记事

什么意思啊?????
回复 支持 反对

使用道具 举报

发表于 2015-11-20 19:27:39 | 显示全部楼层
有卡带,但不全,还是cd好。
回复 支持 反对

使用道具 举报

发表于 2015-11-21 11:23:58 | 显示全部楼层
回复欣赏,感谢分享。
回复 支持 反对

使用道具 举报

发表于 2015-11-22 10:46:13 | 显示全部楼层
看来这个还是一个系列剧集。
回复 支持 反对

使用道具 举报

发表于 2015-11-23 14:03:08 | 显示全部楼层
经典,值得收藏,谢谢!!!
回复 支持 反对

使用道具 举报

发表于 2015-11-28 15:04:14 | 显示全部楼层
很喜欢这个人的声音,谢谢楼主辛苦上传
回复 支持 反对

使用道具 举报

发表于 2015-12-8 09:11:57 | 显示全部楼层
谢谢楼主的热心分享。
回复 支持 反对

使用道具 举报

您需要登录后才可以回帖 登录 | 注册会员

本版积分规则

Archiver|手机版|联系我们|风云音乐谷 ( 粤ICP备09098429号-2 )  

GMT+8, 2018-6-23 19:53 , Processed in 0.098581 second(s), 21 queries .

Powered by Discuz! X3.4

© 2001-2017 Comsenz Inc.

快速回复 返回顶部 返回列表