设为首页收藏本站

风云音乐谷

 找回密码
 注册会员

QQ登录

只需一步,快速开始

扫一扫,访问微社区




重磅:普通音乐转dts5.1环绕声、提升8倍音质(不改音响、不动设备、不接线)新功能上线!!
任何2.0音乐转为dts5.1环绕声音乐教程 制作5.1环绕声DTS Audio DVD音乐碟片 音质原形毕露:批量真假无损音乐鉴别方法
不改音响+不动设备+不接线提升8倍效果 制作5.1环绕声AC3 Audio DVD音乐碟片 提升音乐效果:用高中低音、EQ均衡器实现
破解奥迪、途锐、途观 实现U盘无损音乐 制作2.0立体声WAV Audio DVD音乐碟片 独家 绝密功能:键智能音乐切割、分割教程
制作U盘无损、有损、2.0、5.1移动音乐 制作世界最顶级DVD Audio无损音乐碟片 制作无损、有损、2.0、5.1图片画面音乐碟片
制作U盘无损、有损、2.0、5.1视频音乐 制作显示歌手和歌名cd、dts cd无损碟片 制作无损、有损、2.0、5.1视频画面音乐碟片

【揭露淘宝、微商U盘音乐和碟片15大骗术】            【新手必读:无损音乐下载、检测、制作、播放】   

查看: 1009|回复: 20

[杂合专辑] 群星《豪记之星1》【WAV+CUE/百度】

[复制链接]
发表于 2017-10-6 15:00:18 | 显示全部楼层 |阅读模式

这么精彩的内容,您还在等什么呢?马上注册风云音乐谷查看完整内容

您需要 登录 才可以下载或查看,没有帐号?注册会员

x
本帖最后由 bhvvvv 于 2017-10-6 15:01 编辑

cover.jpg

专辑名称:豪记之星1
专辑艺人:群星
发行公司:豪记影视唱片有限公司 
发行时间:2014年02月26日
专辑语种:台语
资源类型:WAV+CUE

专辑介绍:
收录多首最新超夯经典原声原影台语流行金曲!
动人的情歌,让人更感窝心
匠尽悲欢离合真情擎爱百听不厌
金曲歌王歌后联手出击
ㄠ5首冠军歌曲.原影原音重现
精采最强档的唱将值得你珍藏

专辑曲目:
01.蝴蝶 罗时丰主唱
02.暧昧 罗时丰主唱 民视八点档 风水世家 片尾曲
03.像我这样的男人(国)罗时丰主唱
04.擦掉彼句我爱你 罗时丰主唱
05.两字爱情 向蕙玲主唱
06.口红 向蕙玲主唱
07.月娘的 向蕙玲主唱 三立八点档 世间情 片尾曲
08.为爱牺牲 向蕙玲主唱
09.深深爱你 许志豪主唱
10.心无言 许志豪/张秀卿主唱 三立 戏说台湾 片尾曲
11.心爱的你是我的 许志豪主唱
12.再会 许志豪主唱




下载地址:

游客,如果您要查看本帖隐藏内容请回复



套图地址:

游客,如果您要查看本帖隐藏内容请回复

评分

参与人数 1威望积分 +500 风云金币 +3 收起 理由
爱的天堂 + 500 + 3 分享不易,加分支持

查看全部评分

回复

使用道具 举报

 楼主| 发表于 2017-10-6 15:02:01 | 显示全部楼层
Exact Audio Copy V1.0 beta 3 from 29. August 2011

EAC 抓取日志文件从3. 十月 2015, 2:30

群星 / 豪记之星1

使用驱动器  :PIONEER DVD-RW  DVR-221L   Adapter: 1  ID: 1

读取模式      : 可靠Secure
使用精确流     : 是
清空音频缓存    : 是
使用 C2 指示器 : 否

读取偏移校正:               : 6
读取 Lead-In 和 Lead-Out : 否
用静音填充抓取中丢失偏移的采样       : 是
去除首尾静音块               : 否
在CRC 计算中使用了空样本       : 是
已用接口                  : Win NT 及 2000 本地 Win32 接口

所用输出模式: : 内部 WAV 函数
样本格式    : 44.100 Hz; 16 Bit; 立体声


已抓取 CD 的 TOC

     音轨 |    起始    |    长度    |  起始扇区  |  结束扇区  
    --------------------------------------------
      1 |  0:00.00 |  4:51.58 |      0 |  21882
      2 |  4:51.58 |  5:15.30 |  21883 |  45537
      3 | 10:07.13 |  4:52.26 |  45538 |  67463
      4 | 14:59.39 |  5:05.37 |  67464 |  90375
      5 | 20:05.01 |  4:36.31 |  90376 | 111106
      6 | 24:41.32 |  4:25.57 | 111107 | 131038
      7 | 29:07.14 |  4:39.52 | 131039 | 152015
      8 | 33:46.66 |  4:14.19 | 152016 | 171084
      9 | 38:01.10 |  4:14.59 | 171085 | 190193
     10 | 42:15.69 |  4:19.47 | 190194 | 209665
     11 | 46:35.41 |  3:28.29 | 209666 | 225294
     12 | 50:03.70 |  3:43.39 | 225295 | 242058


范围状态及错误

已选择范围

     文件名 E:\bhvvvv\豪记之星1\群星 - 豪记之星1.wav

     峰值电平 99.7 %
     抓取速度 7.2 X
     范围质量 100.0 %
     复制 CRC E83B3E20
     复制成功

没有错误发生

状态报告结尾

---- CUETools DB Plugin V2.1.3

[CTDB TOCID: isQsFNvOvLwoqAIoRNcksdQiqOM-] database access error:


==== 记录校验日志 B83E04AFDF83316638F4F0A74ECFCE1ED933ACB4F794C94DBA62F2F391A74B35 ====
回复 支持 反对

使用道具 举报

发表于 2017-10-7 09:10:16 | 显示全部楼层
本帖最后由 frahu 于 2017-10-7 09:44 编辑

欣赏欣赏豪记之星1,谢谢bhvvvv 分享,期待3-10
回复 支持 反对

使用道具 举报

发表于 2017-10-7 11:19:39 | 显示全部楼层
感謝樓主的分享,收下了。
回复 支持 反对

使用道具 举报

发表于 2017-10-10 11:50:37 | 显示全部楼层
群星《豪记之星1
回复 支持 反对

使用道具 举报

发表于 2017-10-10 11:50:44 | 显示全部楼层
群星《豪记之星1
回复 支持 反对

使用道具 举报

发表于 2017-10-13 14:28:42 | 显示全部楼层
感恩樓主分享好廳的歌
回复 支持 反对

使用道具 举报

发表于 2017-10-14 14:04:35 | 显示全部楼层
好东西 ,大众分享!!!!
回复 支持 反对

使用道具 举报

发表于 2017-10-24 14:47:58 | 显示全部楼层
整理辛苦、分享快乐
回复 支持 反对

使用道具 举报

发表于 2017-10-25 20:16:26 | 显示全部楼层
谢楼主的慷慨分享
回复 支持 反对

使用道具 举报

发表于 2017-10-29 09:14:20 | 显示全部楼层
感謝樓主的分享,收下了。
回复 支持 反对

使用道具 举报

发表于 2017-10-30 15:58:26 | 显示全部楼层
欣赏欣赏豪记之星
回复 支持 反对

使用道具 举报

发表于 2017-11-6 20:09:44 | 显示全部楼层
感谢楼主分享好音乐,值得珍藏,下来听听!!
回复 支持 反对

使用道具 举报

发表于 2017-11-9 05:46:56 | 显示全部楼层
谢谢楼主的音乐分享
回复 支持 反对

使用道具 举报

发表于 2017-11-9 18:16:16 | 显示全部楼层
闽南歌曲资源不多,不可错过!
回复 支持 反对

使用道具 举报

您需要登录后才可以回帖 登录 | 注册会员

本版积分规则

Archiver|手机版|联系我们|风云音乐谷 ( 粤ICP备09098429号-2 )  

GMT+8, 2018-10-19 14:54 , Processed in 0.283740 second(s), 24 queries .

Powered by Discuz! X3.4

© 2001-2017 Comsenz Inc.

快速回复 返回顶部 返回列表