设为首页收藏本站

风云音乐谷

 找回密码
 注册会员

QQ登录

只需一步,快速开始

扫一扫,访问微社区




重磅:普通音乐转dts5.1环绕声、提升8倍音质(不改音响、不动设备、不接线)新功能上线!!
任何2.0音乐转为dts5.1环绕声音乐教程 制作5.1环绕声DTS Audio DVD音乐碟片 音质原形毕露:批量真假无损音乐鉴别方法
不改音响+不动设备+不接线提升8倍效果 制作5.1环绕声AC3 Audio DVD音乐碟片 提升音乐效果:用高中低音、EQ均衡器实现
破解奥迪、途锐、途观 实现U盘无损音乐 制作2.0立体声WAV Audio DVD音乐碟片 独家 绝密功能:键智能音乐切割、分割教程
制作U盘无损、有损、2.0、5.1移动音乐 制作世界最顶级DVD Audio无损音乐碟片 制作无损、有损、2.0、5.1图片画面音乐碟片
制作U盘无损、有损、2.0、5.1视频音乐 制作显示歌手和歌名cd、dts cd无损碟片 制作无损、有损、2.0、5.1视频画面音乐碟片

【揭露淘宝、微商U盘音乐和碟片15大骗术】            【新手必读:无损音乐下载、检测、制作、播放】   

查看: 835|回复: 16

[杂合专辑] 群星《豪记之星2》【WAV+CUE/百度】

[复制链接]
发表于 2017-10-6 15:25:21 | 显示全部楼层 |阅读模式

这么精彩的内容,您还在等什么呢?马上注册风云音乐谷查看完整内容

您需要 登录 才可以下载或查看,没有帐号?注册会员

x
cover.jpg

专辑名称:豪记之星2
专辑艺人:群星
发行公司:豪记影视唱片有限公司 
发行时间:2014年04月30日
专辑语种:台语
资源类型:WAV+CUE

专辑介绍:
收录多首最新超夯经典原声原影台语流行金曲!
动人的情歌,让人更感窝心
匠尽悲欢离合真情擎爱百听不厌
金曲歌王歌后联手出击
ㄠ5首冠军歌曲.原影原音重现
精采最强档的唱将值得你珍藏

专辑曲目:
01.阿郎行船曲 ( 杨哲主唱 )
02.真爱 ( 杨哲/谢宜君主唱 )
03.爱无二字 ( 杨哲/张秀卿主唱)
04.良心 ( 杨哲主唱 )
05.多桑哟 ( 唐俪主唱 )
06.一生為你 ( 唐俪/杨哲主唱 )
07.爱恨拢随风 ( 唐俪主唱 )
08.感情倒头栽 ( 唐俪主唱 )
09.爱你一生 ( 陈随意主唱 )
10.含慢子 ( 陈随意主唱 )
11.妈妈我爱您 ( 陈随意主唱 )
12.问苍天 ( 陈随意主唱 )



下载地址:

游客,如果您要查看本帖隐藏内容请回复



套图地址:

游客,如果您要查看本帖隐藏内容请回复

评分

参与人数 1威望积分 +500 风云金币 +3 收起 理由
爱的天堂 + 500 + 3 分享不易,加分支持

查看全部评分

回复

使用道具 举报

 楼主| 发表于 2017-10-6 15:25:58 | 显示全部楼层
Exact Audio Copy V1.0 beta 3 from 29. August 2011

EAC 抓取日志文件从3. 十月 2015, 3:02

群星 / 豪记之星2

使用驱动器  :PIONEER DVD-RW  DVR-221L   Adapter: 1  ID: 1

读取模式      : 可靠Secure
使用精确流     : 是
清空音频缓存    : 是
使用 C2 指示器 : 否

读取偏移校正:               : 6
读取 Lead-In 和 Lead-Out : 否
用静音填充抓取中丢失偏移的采样       : 是
去除首尾静音块               : 否
在CRC 计算中使用了空样本       : 是
已用接口                  : Win NT 及 2000 本地 Win32 接口

所用输出模式: : 内部 WAV 函数
样本格式    : 44.100 Hz; 16 Bit; 立体声


已抓取 CD 的 TOC

     音轨 |    起始    |    长度    |  起始扇区  |  结束扇区  
    --------------------------------------------
      1 |  0:00.00 |  3:42.36 |      0 |  16685
      2 |  3:42.36 |  4:03.41 |  16686 |  34951
      3 |  7:46.02 |  4:32.20 |  34952 |  55371
      4 | 12:18.22 |  3:59.23 |  55372 |  73319
      5 | 16:17.45 |  5:34.25 |  73320 |  98394
      6 | 21:51.70 |  4:32.24 |  98395 | 118818
      7 | 26:24.19 |  4:17.25 | 118819 | 138118
      8 | 30:41.44 |  4:09.32 | 138119 | 156825
      9 | 34:51.01 |  3:54.32 | 156826 | 174407
     10 | 38:45.33 |  4:31.60 | 174408 | 194792
     11 | 43:17.18 |  4:47.23 | 194793 | 216340
     12 | 48:04.41 |  5:18.56 | 216341 | 240246


范围状态及错误

已选择范围

     文件名 E:\bhvvvv\豪记之星2\群星 - 豪记之星2.wav

     峰值电平 99.2 %
     抓取速度 1.9 X
     范围质量 100.0 %
     复制 CRC B99989CC
     复制成功

没有错误发生

状态报告结尾

---- CUETools DB Plugin V2.1.3

[CTDB TOCID: C8XHJ9Whxvf1bF6TR3K3ZQgiFeE-] disk not present in database, Submit result: database access error:


==== 记录校验日志 7C41B25142CF2F94CA4BF6BAD8086456337FD708D10A8F5EB0C39401399C8F16 ====
回复 支持 反对

使用道具 举报

头像被屏蔽
发表于 2017-10-7 05:45:38 | 显示全部楼层
豪记之星2专辑下载,谢谢。
回复 支持 反对

使用道具 举报

发表于 2017-10-7 09:13:05 | 显示全部楼层
本帖最后由 frahu 于 2017-10-7 09:16 编辑

bhvvvv抓轨的实在很棒,欣赏音乐的同时欣赏欣赏小册子精美的介绍、歌词等,谢谢分享豪记之星2
回复 支持 反对

使用道具 举报

发表于 2017-10-7 11:19:27 | 显示全部楼层
感謝樓主的分享,收下了。
回复 支持 反对

使用道具 举报

发表于 2017-10-10 11:53:21 | 显示全部楼层
群星《豪记之星2》
回复 支持 反对

使用道具 举报

发表于 2017-10-13 14:29:57 | 显示全部楼层
感恩樓主分享好歌
回复 支持 反对

使用道具 举报

发表于 2017-10-14 14:06:44 | 显示全部楼层
谢谢分享啦!!!!!1!
回复 支持 反对

使用道具 举报

发表于 2017-10-24 14:51:41 | 显示全部楼层
整理辛苦、分享快乐
回复 支持 反对

使用道具 举报

发表于 2017-10-25 20:17:44 | 显示全部楼层
跟进珍藏,楼主辛苦,我喜爱的闽南语歌曲
回复 支持 反对

使用道具 举报

发表于 2017-11-6 20:11:03 | 显示全部楼层
感谢楼主分享好音乐,值得珍藏,下来听听!!
回复 支持 反对

使用道具 举报

发表于 2017-11-9 05:47:44 | 显示全部楼层
谢谢楼主的音乐分享
回复 支持 反对

使用道具 举报

发表于 2017-11-9 18:17:11 | 显示全部楼层
闽南歌曲资源不多,不可错过!
回复 支持 反对

使用道具 举报

发表于 2017-11-16 15:12:53 | 显示全部楼层
群星《豪记之星2》  感谢楼主分享。
回复 支持 反对

使用道具 举报

发表于 2017-11-22 13:14:21 | 显示全部楼层
群星《豪记之星2感恩
回复 支持 反对

使用道具 举报

您需要登录后才可以回帖 登录 | 注册会员

本版积分规则

Archiver|手机版|联系我们|风云音乐谷 ( 粤ICP备09098429号-2 )  

GMT+8, 2018-10-18 12:47 , Processed in 0.271176 second(s), 21 queries .

Powered by Discuz! X3.4

© 2001-2017 Comsenz Inc.

快速回复 返回顶部 返回列表