设为首页收藏本站

风云音乐谷

 找回密码
 注册会员

QQ登录

只需一步,快速开始

扫一扫,访问微社区




重磅:普通音乐转dts5.1环绕声、提升8倍音质(不改音响、不动设备、不接线)新功能上线!!
任何2.0音乐转为dts5.1环绕声音乐教程 制作5.1环绕声DTS Audio DVD音乐碟片 音质原形毕露:批量真假无损音乐鉴别方法
不改音响+不动设备+不接线提升8倍效果 制作5.1环绕声AC3 Audio DVD音乐碟片 提升音乐效果:用高中低音、EQ均衡器实现
破解奥迪、途锐、途观 实现U盘无损音乐 制作2.0立体声WAV Audio DVD音乐碟片 独家 绝密功能:键智能音乐切割、分割教程
制作U盘无损、有损、2.0、5.1移动音乐 制作世界最顶级DVD Audio无损音乐碟片 制作无损、有损、2.0、5.1图片画面音乐碟片
制作U盘无损、有损、2.0、5.1视频音乐 制作显示歌手和歌名cd、dts cd无损碟片 制作无损、有损、2.0、5.1视频画面音乐碟片

【揭露淘宝、微商U盘音乐和碟片15大骗术】            【新手必读:无损音乐下载、检测、制作、播放】   

查看: 1091|回复: 20

[杂合专辑] 群星《豪记之星6》【WAV+CUE/百度】

[复制链接]
发表于 2017-10-7 11:41:19 | 显示全部楼层 |阅读模式

这么精彩的内容,您还在等什么呢?马上注册风云音乐谷查看完整内容

您需要 登录 才可以下载或查看,没有帐号?注册会员

x
cover.jpg

专辑名称:豪记之星6
专辑艺人:群星
发行公司:豪记影视唱片有限公司 
发行时间:2014年12月16日
专辑语种:台语
资源类型:WAV+CUE

专辑介绍:
收录多首最新超夯经典原声原影台语流行金曲!
动人的情歌,让人更感窝心
匠尽悲欢离合真情擎爱百听不厌
金曲歌王歌后联手出击
ㄠ5首冠军歌曲.原影原音重现
精采最强档的唱将值得你珍藏

专辑曲目:
01.阮的幸福 陈淑萍主唱 三立八点档 世间情 片头曲
02.情缘路 陈淑萍/翁立友主唱
03.情雨飞 陈淑萍主唱
04.夜清风 陈淑萍主唱
05.爱情的路 杨静/罗时丰主唱
06.露水情 杨静主唱 三立 戏说台湾 片尾曲
07.新娘纱 杨静主唱
08.吻别  杨静主唱
09.苦旦 陈思安主唱
10.女人青春梦 陈思安/方宁主唱
11.小琉球恋曲 陈思安主唱
12.捡破烂 陈思安主唱



下载地址:

游客,如果您要查看本帖隐藏内容请回复


套图地址:

游客,如果您要查看本帖隐藏内容请回复

评分

参与人数 1威望积分 +500 风云金币 +3 收起 理由
爱的天堂 + 500 + 3 分享不易,加分支持

查看全部评分

回复

使用道具 举报

 楼主| 发表于 2017-10-7 11:42:16 | 显示全部楼层
Exact Audio Copy V1.0 beta 3 from 29. August 2011

EAC 抓取日志文件从3. 十月 2015, 9:43

群星 / 豪记之星6

使用驱动器  :PIONEER DVD-RW  DVR-221L   Adapter: 1  ID: 1

读取模式      : 可靠Secure
使用精确流     : 是
清空音频缓存    : 是
使用 C2 指示器 : 否

读取偏移校正:               : 6
读取 Lead-In 和 Lead-Out : 否
用静音填充抓取中丢失偏移的采样       : 是
去除首尾静音块               : 否
在CRC 计算中使用了空样本       : 是
已用接口                  : Win NT 及 2000 本地 Win32 接口

所用输出模式: : 内部 WAV 函数
样本格式    : 44.100 Hz; 16 Bit; 立体声


已抓取 CD 的 TOC

     音轨 |    起始    |    长度    |  起始扇区  |  结束扇区  
    --------------------------------------------
      1 |  0:00.00 |  4:16.29 |      0 |  19228
      2 |  4:16.29 |  5:30.19 |  19229 |  43997
      3 |  9:46.48 |  4:15.45 |  43998 |  63167
      4 | 14:02.18 |  4:22.16 |  63168 |  82833
      5 | 18:24.34 |  4:02.47 |  82834 | 101030
      6 | 22:27.06 |  4:37.24 | 101031 | 121829
      7 | 27:04.30 |  4:09.40 | 121830 | 140544
      8 | 31:13.70 |  4:22.29 | 140545 | 160223
      9 | 35:36.24 |  5:03.19 | 160224 | 182967
     10 | 40:39.43 |  4:56.21 | 182968 | 205188
     11 | 45:35.64 |  3:53.71 | 205189 | 222734
     12 | 49:29.60 |  3:59.03 | 222735 | 240662


范围状态及错误

已选择范围

     文件名 E:\bhvvvv\豪记之星6\群星 - 豪记之星6.wav

     峰值电平 95.5 %
     抓取速度 1.9 X
     范围质量 100.0 %
     复制 CRC 7CBB5605
     复制成功

没有错误发生

状态报告结尾

---- CUETools DB Plugin V2.1.3

[CTDB TOCID: JcLGE7Is7hKrVhFN0d55puMcDiM-] disk not present in database, Submit result: JcLGE7Is7hKrVhFN0d55puMcDiM- has been uploaded


==== 记录校验日志 20EE07A66A2A06486DA26C0D17250D98CDFDF02E65A8BECBA9C3DAB7CC68F395 ====
回复 支持 反对

使用道具 举报

发表于 2017-10-7 12:20:29 | 显示全部楼层
喜欢的歌手下载来欣赏
回复 支持 反对

使用道具 举报

发表于 2017-10-7 18:39:20 | 显示全部楼层
真心谢谢bhvvvv 分享豪记之星6
回复 支持 反对

使用道具 举报

发表于 2017-10-7 19:30:01 | 显示全部楼层
顶起,感谢分享
回复 支持 反对

使用道具 举报

头像被屏蔽
发表于 2017-10-8 08:36:02 | 显示全部楼层
豪记之星6下载,谢谢。
回复 支持 反对

使用道具 举报

发表于 2017-10-8 09:35:37 | 显示全部楼层
谢谢楼主的音乐分享
回复 支持 反对

使用道具 举报

发表于 2017-10-10 11:55:58 | 显示全部楼层
群星《豪记之星6
回复 支持 反对

使用道具 举报

发表于 2017-10-13 11:15:43 | 显示全部楼层
感謝樓主的分享,收下了。
回复 支持 反对

使用道具 举报

发表于 2017-10-13 14:47:26 | 显示全部楼层
豪記之星 6--好聽,謝謝樓主分享
回复 支持 反对

使用道具 举报

发表于 2017-10-24 16:52:28 | 显示全部楼层
整理辛苦、分享快乐
回复 支持 反对

使用道具 举报

发表于 2017-10-25 20:22:49 | 显示全部楼层
很喜爱的闽南语,我珍藏
回复 支持 反对

使用道具 举报

发表于 2017-11-6 20:18:33 | 显示全部楼层
感谢楼主分享好音乐,值得珍藏,下来听听!!
回复 支持 反对

使用道具 举报

发表于 2017-11-9 05:51:18 | 显示全部楼层
谢谢楼主的音乐分享
回复 支持 反对

使用道具 举报

发表于 2017-11-9 18:22:34 | 显示全部楼层
闽南歌曲资源不多,不可错过!
回复 支持 反对

使用道具 举报

您需要登录后才可以回帖 登录 | 注册会员

本版积分规则

Archiver|手机版|联系我们|风云音乐谷 ( 粤ICP备09098429号-2 )  

GMT+8, 2018-10-19 16:01 , Processed in 0.378524 second(s), 24 queries .

Powered by Discuz! X3.4

© 2001-2017 Comsenz Inc.

快速回复 返回顶部 返回列表