设为首页收藏本站

风云音乐谷

 找回密码
 注册会员

QQ登录

只需一步,快速开始

扫一扫,访问微社区


【揭露淘宝、微商卖U盘音乐、无损碟片15条惊天骗术】     【无损音乐下载、检测、使用、播放必备四步】

破解奥迪、途锐U盘播放wav、dts音乐方法 显示歌手和歌名的CD、DTS CD无损碟片制作教程 一键制作AC3 Audio DVD杜比音乐碟片
一键制作U盘(SD卡、TF卡)无损音乐教程 任何车型播放wav、flac、ape、dts无损音乐方法 一键制作DTS Audio DVD无损音乐碟片
一键批量抓取SACD光盘ISO镜像曲目的方法 一键制作世界最顶级的DVD Audio无损音乐碟片 一键制作WAV Audio DVD无损音乐碟片
U盘、碟片播放5.1环绕声dts音乐方法总结 一键制作U盘dts、wav、flac、ape视频音乐教程 一键制作DVD图片(视频)MV音乐碟片教程
查看: 412|回复: 15

[杂合专辑] 群星《豪记之星7》【WAV+CUE/百度】

[复制链接]
发表于 2017-10-7 12:20:23 | 显示全部楼层 |阅读模式

这么精彩的内容,您还在等什么呢?马上注册风云音乐谷查看完整内容

您需要 登录 才可以下载或查看,没有帐号?注册会员

x
cover.jpg

专辑名称:豪记之星7
专辑艺人:群星
发行公司:豪记影视唱片有限公司 
发行时间:2015年03月30日
音乐类型:台语歌曲
专辑语种:台语
资源类型:WAV+CUE

专辑介绍:
收录多首最新超夯经典原声原影台语流行金曲!
动人的情歌,让人更感窝心
匠尽悲欢离合真情擎爱百听不厌
金曲歌王歌后联手出击
ㄠ5首冠军歌曲.
原影原音重现
精采最强档的唱将值得你珍藏

专辑曲目:
01.幸福的嫁妆 向蕙玲主唱 民视八点档 嫁妆 片尾曲
02.爱你的记志 向蕙玲主唱
03.失去你不后悔 向蕙玲主唱
04.月娘的背影 向蕙玲主唱
05.华佗 江志丰主唱
06.轻轻一句话 江志丰主唱
07.提拉米苏 江志丰主唱
08.我放开你的手 江志丰主唱
09.思念的梦 乔幼主唱 叁立八点档 世间情 金曲
10.事到如今 乔幼主唱
11.山顶的春天 乔幼/陈随意主唱
12.鸳鸯溪 乔幼主唱




下载地址:

游客,如果您要查看本帖隐藏内容请回复



套图地址:

游客,如果您要查看本帖隐藏内容请回复

评分

参与人数 1威望积分 +500 风云金币 +3 收起 理由
爱的天堂 + 500 + 3 分享不易,加分支持

查看全部评分

回复

使用道具 举报

 楼主| 发表于 2017-10-7 12:20:56 | 显示全部楼层
Exact Audio Copy V1.0 beta 3 from 29. August 2011

EAC 抓取日志文件从3. 十月 2015, 10:16

群星 / 豪记之星7

使用驱动器  :PIONEER DVD-RW  DVR-221L   Adapter: 1  ID: 1

读取模式      : 可靠Secure
使用精确流     : 是
清空音频缓存    : 是
使用 C2 指示器 : 否

读取偏移校正:               : 6
读取 Lead-In 和 Lead-Out : 否
用静音填充抓取中丢失偏移的采样       : 是
去除首尾静音块               : 否
在CRC 计算中使用了空样本       : 是
已用接口                  : Win NT 及 2000 本地 Win32 接口

所用输出模式: : 内部 WAV 函数
样本格式    : 44.100 Hz; 16 Bit; 立体声


已抓取 CD 的 TOC

     音轨 |    起始    |    长度    |  起始扇区  |  结束扇区  
    --------------------------------------------
      1 |  0:00.00 |  4:24.29 |      0 |  19828
      2 |  4:24.29 |  4:42.21 |  19829 |  40999
      3 |  9:06.50 |  4:40.40 |  41000 |  62039
      4 | 13:47.15 |  5:23.25 |  62040 |  86289
      5 | 19:10.40 |  4:42.23 |  86290 | 107462
      6 | 23:52.63 |  4:31.23 | 107463 | 127810
      7 | 28:24.11 |  4:11.25 | 127811 | 146660
      8 | 32:35.36 |  4:17.22 | 146661 | 165957
      9 | 36:52.58 |  4:25.30 | 165958 | 185862
     10 | 41:18.13 |  4:16.13 | 185863 | 205075
     11 | 45:34.26 |  4:26.26 | 205076 | 225051
     12 | 50:00.52 |  4:19.27 | 225052 | 244503


范围状态及错误

已选择范围

     文件名 E:\bhvvvv\豪记之星7\群星 - 豪记之星7.wav

     峰值电平 95.9 %
     抓取速度 1.9 X
     范围质量 100.0 %
     复制 CRC 2261F849
     复制成功

没有错误发生

状态报告结尾

---- CUETools DB Plugin V2.1.3

[CTDB TOCID: GZNEpzSu7VSvNpx7gQJ73ApOg3s-] disk not present in database, Submit result: GZNEpzSu7VSvNpx7gQJ73ApOg3s- has been uploaded


==== 记录校验日志 122E12C29AFF12B09ED8E537A1A2AEF1FB59CAF48F9021B381F4A9F84721318D ====
回复 支持 反对

使用道具 举报

发表于 2017-10-7 18:36:23 | 显示全部楼层
谢谢楼主分享“豪记之星7”专辑,其中买了能买到的向蕙玲5专辑
回复 支持 反对

使用道具 举报

发表于 2017-10-7 19:30:58 | 显示全部楼层
顶起,感谢分享
回复 支持 反对

使用道具 举报

头像被屏蔽
发表于 2017-10-8 08:35:14 | 显示全部楼层
豪记之星7下载,谢谢。
回复 支持 反对

使用道具 举报

发表于 2017-10-8 09:33:35 | 显示全部楼层
谢谢楼主的音乐分享
回复 支持 反对

使用道具 举报

发表于 2017-10-10 11:56:32 | 显示全部楼层
群星《豪记之星7》
回复 支持 反对

使用道具 举报

发表于 2017-10-13 11:16:09 | 显示全部楼层
感謝樓主的分享,收下了。
回复 支持 反对

使用道具 举报

发表于 2017-10-13 14:49:01 | 显示全部楼层
豪記之星 7--感謝樓主分享
回复 支持 反对

使用道具 举报

发表于 2017-10-24 20:16:08 | 显示全部楼层
整理辛苦、分享快乐
回复 支持 反对

使用道具 举报

发表于 2017-10-25 20:23:39 | 显示全部楼层
辛苦楼主辛勤劳作,无私分享。
回复 支持 反对

使用道具 举报

发表于 2017-11-6 20:20:34 | 显示全部楼层
感谢楼主分享好音乐,值得珍藏,下来听听!!
回复 支持 反对

使用道具 举报

发表于 2017-11-9 05:52:15 | 显示全部楼层
谢谢楼主的音乐分享
回复 支持 反对

使用道具 举报

发表于 2017-11-9 18:23:13 | 显示全部楼层
闽南歌曲资源不多,不可错过!
回复 支持 反对

使用道具 举报

发表于 2017-11-21 13:11:26 | 显示全部楼层
群星《豪记之星7》【
回复 支持 反对

使用道具 举报

您需要登录后才可以回帖 登录 | 注册会员

本版积分规则

Archiver|手机版|联系我们|风云音乐谷 ( 粤ICP备09098429号-2 )  

GMT+8, 2018-6-24 19:13 , Processed in 0.093194 second(s), 21 queries .

Powered by Discuz! X3.4

© 2001-2017 Comsenz Inc.

快速回复 返回顶部 返回列表