设为首页收藏本站

风云音乐谷

 找回密码
 注册会员

QQ登录

只需一步,快速开始

扫一扫,访问微社区


【揭露淘宝、微商卖U盘音乐、无损碟片15条惊天骗术】     【无损音乐下载、检测、使用、播放必备四步】

破解奥迪、途锐U盘播放wav、dts音乐方法 显示歌手和歌名的CD、DTS CD无损碟片制作教程 一键制作AC3 Audio DVD杜比音乐碟片
一键制作U盘(SD卡、TF卡)无损音乐教程 任何车型播放wav、flac、ape、dts无损音乐方法 一键制作DTS Audio DVD无损音乐碟片
一键批量抓取SACD光盘ISO镜像曲目的方法 一键制作世界最顶级的DVD Audio无损音乐碟片 一键制作WAV Audio DVD无损音乐碟片
U盘、碟片播放5.1环绕声dts音乐方法总结 一键制作U盘dts、wav、flac、ape视频音乐教程 一键制作DVD图片(视频)MV音乐碟片教程
查看: 458|回复: 16

[杂合专辑] 群星《豪记之星9》【WAV+CUE/百度】

[复制链接]
发表于 2017-10-7 13:20:33 | 显示全部楼层 |阅读模式

这么精彩的内容,您还在等什么呢?马上注册风云音乐谷查看完整内容

您需要 登录 才可以下载或查看,没有帐号?注册会员

x
cover.jpg

专辑名称:豪记之星9
专辑艺人:群星
发行公司:豪记影视唱片有限公司 
发行时间:2015年07月30日
专辑语种:台语
资源类型:WAV+CUE

专辑介绍:
收录多首最新超夯经典原声原影台语流行金曲!
动人的情歌,让人更感窝心
匠尽悲欢离合真情擎爱百听不厌
金曲歌王歌后联手出击
ㄠ5首冠军歌曲.
原影原音重现
精采最强档的唱将值得你珍藏

专辑曲目:
01.多情玫瑰 张蓉蓉主唱 三立 戏说台湾 片尾曲
02.美丽娜鲁湾 张蓉蓉主唱
03.等啊等 张蓉蓉主唱
04.送你一句话 张蓉蓉主唱
05.八字命 庄振凯主唱 三立八点档 世间情 主题曲
06.最美的嫁妆 庄振凯/向蕙玲主唱 民视八点档 嫁妆 片尾曲
07.今生来世 庄振凯主唱
08.风云再起 庄振凯主唱
09.一暝三冬 唐俪主唱 三立 戏说台湾 片尾曲
10.一字缘 唐俪主唱
11.幸福路唐俪主唱
12.笑笑看今世 唐俪主唱




下载地址:

游客,如果您要查看本帖隐藏内容请回复



套图地址:

游客,如果您要查看本帖隐藏内容请回复
回复

使用道具 举报

 楼主| 发表于 2017-10-7 13:21:04 | 显示全部楼层

Exact Audio Copy V1.0 beta 3 from 29. August 2011

EAC 抓取日志文件从3. 十月 2015, 11:16

群星 / 豪记之星9

使用驱动器  :PIONEER DVD-RW  DVR-221L   Adapter: 1  ID: 1

读取模式      : 可靠Secure
使用精确流     : 是
清空音频缓存    : 是
使用 C2 指示器 : 否

读取偏移校正:               : 6
读取 Lead-In 和 Lead-Out : 否
用静音填充抓取中丢失偏移的采样       : 是
去除首尾静音块               : 否
在CRC 计算中使用了空样本       : 是
已用接口                  : Win NT 及 2000 本地 Win32 接口

所用输出模式: : 内部 WAV 函数
样本格式    : 44.100 Hz; 16 Bit; 立体声


已抓取 CD 的 TOC

     音轨 |    起始    |    长度    |  起始扇区  |  结束扇区  
    --------------------------------------------
      1 |  0:00.00 |  3:45.10 |      0 |  16884
      2 |  3:45.10 |  5:04.19 |  16885 |  39703
      3 |  8:49.29 |  4:15.16 |  39704 |  58844
      4 | 13:04.45 |  4:02.27 |  58845 |  77021
      5 | 17:06.72 |  4:36.12 |  77022 |  97733
      6 | 21:43.09 |  4:19.29 |  97734 | 117187
      7 | 26:02.38 |  4:33.27 | 117188 | 137689
      8 | 30:35.65 |  3:48.33 | 137690 | 154822
      9 | 34:24.23 |  3:19.27 | 154823 | 169774
     10 | 37:43.50 |  4:31.24 | 169775 | 190123
     11 | 42:14.74 |  4:31.33 | 190124 | 210481
     12 | 46:46.32 |  4:16.29 | 210482 | 229710


范围状态及错误

已选择范围

     文件名 E:\bhvvvv\豪记之星9\群星 - 豪记之星9.wav

     峰值电平 96.4 %
     抓取速度 1.9 X
     范围质量 100.0 %
     复制 CRC 65EB291A
     复制成功

没有错误发生

状态报告结尾

---- CUETools DB Plugin V2.1.3

[CTDB TOCID: clT2zqXIkgQy6uSH4aYgJ4qDeWs-] disk not present in database, Submit result: clT2zqXIkgQy6uSH4aYgJ4qDeWs- has been uploaded


==== 记录校验日志 2C2DEA89AE25364C4DD2E5BF6291F50A1CBF6C62E1888D5EA94FADA3FE50DF51 ====
回复 支持 反对

使用道具 举报

发表于 2017-10-7 18:30:47 | 显示全部楼层
不知道怎么说谢谢,真心谢谢分享豪记之星9
回复 支持 反对

使用道具 举报

发表于 2017-10-7 19:32:27 | 显示全部楼层
顶起,感谢分享
回复 支持 反对

使用道具 举报

头像被屏蔽
发表于 2017-10-8 08:29:40 | 显示全部楼层
豪记之星9下载,谢谢。
回复 支持 反对

使用道具 举报

发表于 2017-10-8 09:31:06 | 显示全部楼层
谢谢楼主的音乐分享
回复 支持 反对

使用道具 举报

发表于 2017-10-10 11:57:33 | 显示全部楼层
群星《豪记之星9》
回复 支持 反对

使用道具 举报

发表于 2017-10-13 11:19:50 | 显示全部楼层
感謝樓主的分享,收下了。
回复 支持 反对

使用道具 举报

发表于 2017-10-13 14:58:55 | 显示全部楼层
豪記之星 9,感恩樓主
回复 支持 反对

使用道具 举报

发表于 2017-10-24 20:51:56 | 显示全部楼层
整理辛苦、分享快乐
回复 支持 反对

使用道具 举报

发表于 2017-10-25 20:25:17 | 显示全部楼层
支持楼主的辛苦整理分享
回复 支持 反对

使用道具 举报

发表于 2017-11-6 21:25:18 | 显示全部楼层
谢谢楼主分享好歌, 下来听听
回复 支持 反对

使用道具 举报

发表于 2017-11-9 05:41:46 | 显示全部楼层
谢谢楼主的音乐分享
回复 支持 反对

使用道具 举报

发表于 2017-11-9 18:25:51 | 显示全部楼层
闽南语的资源不多见!
回复 支持 反对

使用道具 举报

发表于 2017-11-20 16:37:47 | 显示全部楼层
一定很好听,谢谢了
回复 支持 反对

使用道具 举报

您需要登录后才可以回帖 登录 | 注册会员

本版积分规则

Archiver|手机版|联系我们|风云音乐谷 ( 粤ICP备09098429号-2 )  

GMT+8, 2018-6-24 19:15 , Processed in 0.105397 second(s), 20 queries .

Powered by Discuz! X3.4

© 2001-2017 Comsenz Inc.

快速回复 返回顶部 返回列表