设为首页收藏本站

风云音乐谷

 找回密码
 注册会员

QQ登录

只需一步,快速开始

扫一扫,访问微社区




重磅:普通音乐转dts5.1环绕声、提升8倍音质(不改音响、不动设备、不接线)新功能上线!!
任何2.0音乐转为dts5.1环绕声音乐教程 制作5.1环绕声DTS Audio DVD音乐碟片 音质原形毕露:批量真假无损音乐鉴别方法
不改音响+不动设备+不接线提升8倍效果 制作5.1环绕声AC3 Audio DVD音乐碟片 提升音乐效果:用高中低音、EQ均衡器实现
破解奥迪、途锐、途观 实现U盘无损音乐 制作2.0立体声WAV Audio DVD音乐碟片 独家 绝密功能:键智能音乐切割、分割教程
制作U盘无损、有损、2.0、5.1移动音乐 制作世界最顶级DVD Audio无损音乐碟片 制作无损、有损、2.0、5.1图片画面音乐碟片
制作U盘无损、有损、2.0、5.1视频音乐 制作显示歌手和歌名cd、dts cd无损碟片 制作无损、有损、2.0、5.1视频画面音乐碟片

【揭露淘宝、微商U盘音乐和碟片15大骗术】            【新手必读:无损音乐下载、检测、制作、播放】   

查看: 959|回复: 17

[杂合专辑] 群星《豪记之星10》【WAV+CUE/百度】

[复制链接]
发表于 2017-10-7 13:45:39 | 显示全部楼层 |阅读模式

这么精彩的内容,您还在等什么呢?马上注册风云音乐谷查看完整内容

您需要 登录 才可以下载或查看,没有帐号?注册会员

x
cover.jpg

专辑名称:豪记之星10
专辑艺人:群星
发行公司:豪记影视唱片有限公司 
发行时间:2015年09月25日
音乐类型:台语歌曲
专辑语种:台语
资源类型:WAV+CUE

专辑介绍:
收录多首最新超夯经典原声原影台语流行金曲!
动人的情歌,让人更感窝心
匠尽悲欢离合真情擎爱百听不厌
金曲歌王歌后联手出击
ㄠ5首冠军歌曲.
原影原音重现
精采最强档的唱将值得你珍藏

专辑曲目:
01.男人 陈随意主唱 三立八点档 世间情 片尾曲
02.一生守候 陈随意/唐俪主唱
03.八两金 陈随意主唱
04.今朝有酒今朝醉 陈随意主唱
05.水噹噹 朱海君vs NONO主唱
06.疼惜女人心 朱海君主唱 民视八点档 嫁妆 片尾曲
07.心痛看祙到 朱海君主唱
08.阿母的针车 朱海君主唱
09.双人的爱 杨哲/乔幼主唱
10.恋恋不捨 杨哲主唱
11.出外的歌 杨哲主唱
12.是阮 杨哲主唱




下载地址:

游客,如果您要查看本帖隐藏内容请回复


套图地址:

游客,如果您要查看本帖隐藏内容请回复

评分

参与人数 1威望积分 +500 风云金币 +3 收起 理由
爱的天堂 + 500 + 3 分享不易,加分支持

查看全部评分

回复

使用道具 举报

 楼主| 发表于 2017-10-7 13:46:39 | 显示全部楼层
Exact Audio Copy V1.0 beta 3 from 29. August 2011

EAC 抓取日志文件从3. 十一月 2015, 0:45

群星 / 豪记之星10

使用驱动器  :PIONEER DVD-RW  DVR-221L   Adapter: 1  ID: 1

读取模式      : 可靠Secure
使用精确流     : 是
清空音频缓存    : 是
使用 C2 指示器 : 否

读取偏移校正:               : 6
读取 Lead-In 和 Lead-Out : 否
用静音填充抓取中丢失偏移的采样       : 是
去除首尾静音块               : 否
在CRC 计算中使用了空样本       : 是
已用接口                  : Win NT 及 2000 本地 Win32 接口

所用输出模式: : 内部 WAV 函数
样本格式    : 44.100 Hz; 16 Bit; 立体声


已抓取 CD 的 TOC

     音轨 |    起始    |    长度    |  起始扇区  |  结束扇区  
    --------------------------------------------
      1 |  0:00.00 |  4:21.25 |      0 |  19599
      2 |  4:21.25 |  5:16.65 |  19600 |  43364
      3 |  9:38.15 |  4:37.39 |  43365 |  64178
      4 | 14:15.54 |  4:26.09 |  64179 |  84137
      5 | 18:41.63 |  3:58.29 |  84138 | 102016
      6 | 22:40.17 |  4:02.30 | 102017 | 120196
      7 | 26:42.47 |  4:11.22 | 120197 | 139043
      8 | 30:53.69 |  4:32.36 | 139044 | 159479
      9 | 35:26.30 |  4:39.30 | 159480 | 180434
     10 | 40:05.60 |  4:12.14 | 180435 | 199348
     11 | 44:17.74 |  4:38.24 | 199349 | 220222
     12 | 48:56.23 |  4:15.24 | 220223 | 239371


范围状态及错误

已选择范围

     文件名 E:\bhvvvv\豪记之星10\群星 - 豪记之星10.wav

     峰值电平 96.2 %
     抓取速度 1.8 X
     范围质量 100.0 %
     复制 CRC E6A53F33
     复制成功

没有错误发生

状态报告结尾

---- CUETools DB Plugin V2.1.3

[CTDB TOCID: 59831xEXg9ZUG_MriaCiaPS0-] disk not present in database, Submit result: database access error:


==== 记录校验日志 B5BF261F65D5487440BFFD4FEE68A4CDB6BD73FC8360286AE65DDFC243B838BF ====
回复 支持 反对

使用道具 举报

发表于 2017-10-7 18:28:42 | 显示全部楼层
楼主辛苦啦10碟全部搞定了,谢谢分享豪记之星10
回复 支持 反对

使用道具 举报

发表于 2017-10-7 19:33:30 | 显示全部楼层
顶起,感谢分享
回复 支持 反对

使用道具 举报

头像被屏蔽
发表于 2017-10-8 08:28:30 | 显示全部楼层
豪记之星10下载,谢谢。
回复 支持 反对

使用道具 举报

发表于 2017-10-8 09:29:49 | 显示全部楼层
谢谢楼主的音乐分享
回复 支持 反对

使用道具 举报

发表于 2017-10-10 11:58:05 | 显示全部楼层
群星《豪记之星10》
回复 支持 反对

使用道具 举报

发表于 2017-10-13 11:20:02 | 显示全部楼层
感謝樓主的分享,收下了。
回复 支持 反对

使用道具 举报

发表于 2017-10-13 15:00:44 | 显示全部楼层
豪記之星10,感恩樓主分享
回复 支持 反对

使用道具 举报

发表于 2017-10-24 21:02:59 | 显示全部楼层
整理辛苦+分享快乐
回复 支持 反对

使用道具 举报

发表于 2017-10-25 20:25:50 | 显示全部楼层
太美啦,我收下欣赏
回复 支持 反对

使用道具 举报

发表于 2017-11-6 21:26:21 | 显示全部楼层
谢谢楼主分享好歌, 下来听听
回复 支持 反对

使用道具 举报

发表于 2017-11-7 07:12:09 | 显示全部楼层
家乡的声音好喜欢
回复 支持 反对

使用道具 举报

发表于 2017-11-9 05:39:35 | 显示全部楼层
谢谢楼主的音乐分享
回复 支持 反对

使用道具 举报

发表于 2017-11-9 18:26:40 | 显示全部楼层
闽南语的资源不多见!
回复 支持 反对

使用道具 举报

您需要登录后才可以回帖 登录 | 注册会员

本版积分规则

Archiver|手机版|联系我们|风云音乐谷 ( 粤ICP备09098429号-2 )  

GMT+8, 2018-10-19 15:05 , Processed in 0.157864 second(s), 24 queries .

Powered by Discuz! X3.4

© 2001-2017 Comsenz Inc.

快速回复 返回顶部 返回列表