设为首页收藏本站

风云音乐谷

 找回密码
 注册会员

QQ登录

只需一步,快速开始

扫一扫,访问微社区


【揭露淘宝、微商卖U盘音乐、无损碟片15条惊天骗术】     【无损音乐下载、检测、使用、播放必备四步】

破解奥迪、途锐U盘播放wav、dts音乐方法 显示歌手和歌名的CD、DTS CD无损碟片制作教程 一键制作AC3 Audio DVD杜比音乐碟片
一键制作U盘(SD卡、TF卡)无损音乐教程 任何车型播放wav、flac、ape、dts无损音乐方法 一键制作DTS Audio DVD无损音乐碟片
一键批量抓取SACD光盘ISO镜像曲目的方法 一键制作世界最顶级的DVD Audio无损音乐碟片 一键制作WAV Audio DVD无损音乐碟片
U盘、碟片播放5.1环绕声dts音乐方法总结 一键制作U盘dts、wav、flac、ape视频音乐教程 一键制作DVD图片(视频)MV音乐碟片教程
查看: 600|回复: 16

[杂合专辑] 群星《原唱原曲11鸳鸯路》【WAV+CUE/百度】

[复制链接]
发表于 2017-10-8 10:15:04 | 显示全部楼层 |阅读模式

这么精彩的内容,您还在等什么呢?马上注册风云音乐谷查看完整内容

您需要 登录 才可以下载或查看,没有帐号?注册会员

x
cover.jpg

专辑名称:原唱原曲11-鸳鸯路
专辑艺人:群星
发行公司:上豪唱片有限公司
发行时间:2013年07月03日
专辑语种:台语
资源类型:WAV+CUE

专辑介绍:
收录多首最新超夯经典原声原影台语流行金曲!
动人的情歌,让人更感窝心
匠尽悲欢离合真情擎爱百听不厌
金曲歌王歌后联手出击
ㄠ5首冠军歌曲.原影原音重现
精采最强档的唱将值得你珍藏

专辑曲目:
01.鸳鸯路 翁立友主唱 (民视8点档 风水世家 片尾曲)
02.牵你的手 唐俪/陈随意主唱 (三立8点档 天下女人心 片头曲)
03.笑谈人生 林姍主唱 (民视7:30 封神榜 片头曲)
04.醉李白 蔡秋凤主唱 (三立 戏说台湾 片尾曲)
05.辣妹驾到 张秀卿主唱
06.放手拼 翁立友主唱
07.爱你之前 朱海君主唱
08.三寸心 吴俊宏主唱 (三立 戏说台湾 片尾曲)
09.感谢天地 翁立友/黄思婷主唱
10.女神龙 龙千玉主唱
11.命   蔡秋凤主唱
12.情人巷 张秀卿主唱
13.赎罪 李明洋主唱
14.叫醒阮的梦 林姍主唱
15.长恨歌 许志豪主唱
16.恨爱情 林良欢主唱




下载地址:

游客,如果您要查看本帖隐藏内容请回复



套图地址:

游客,如果您要查看本帖隐藏内容请回复

评分

参与人数 1威望积分 +500 风云金币 +3 收起 理由
爱的天堂 + 500 + 3 分享不易,加分支持

查看全部评分

回复

使用道具 举报

 楼主| 发表于 2017-10-8 10:16:16 | 显示全部楼层
Exact Audio Copy V1.0 beta 3 from 29. August 2011

EAC 抓取日志文件从6. 十月 2015, 2:34

群星 / 原唱原曲11

使用驱动器  :PIONEER DVD-RW  DVR-221L   Adapter: 1  ID: 1

读取模式      : 可靠Secure
使用精确流     : 是
清空音频缓存    : 是
使用 C2 指示器 : 否

读取偏移校正:               : 6
读取 Lead-In 和 Lead-Out : 否
用静音填充抓取中丢失偏移的采样       : 是
去除首尾静音块               : 否
在CRC 计算中使用了空样本       : 是
已用接口                  : Win NT 及 2000 本地 Win32 接口

所用输出模式: : 内部 WAV 函数
样本格式    : 44.100 Hz; 16 Bit; 立体声


已抓取 CD 的 TOC

     音轨 |    起始    |    长度    |  起始扇区  |  结束扇区  
    --------------------------------------------
      1 |  0:00.00 |  4:21.43 |      0 |  19617
      2 |  4:21.43 |  4:47.15 |  19618 |  41157
      3 |  9:08.58 |  3:48.21 |  41158 |  58278
      4 | 12:57.04 |  4:00.22 |  58279 |  76300
      5 | 16:57.26 |  4:02.22 |  76301 |  94472
      6 | 20:59.48 |  4:35.31 |  94473 | 115128
      7 | 25:35.04 |  3:49.24 | 115129 | 132327
      8 | 29:24.28 |  4:30.67 | 132328 | 152644
      9 | 33:55.20 |  3:50.30 | 152645 | 169924
     10 | 37:45.50 |  3:56.65 | 169925 | 187689
     11 | 41:42.40 |  4:56.33 | 187690 | 209922
     12 | 46:38.73 |  4:22.25 | 209923 | 229597
     13 | 51:01.23 |  4:18.31 | 229598 | 248978
     14 | 55:19.54 |  4:19.68 | 248979 | 268471
     15 | 59:39.47 |  4:55.46 | 268472 | 290642
     16 | 64:35.18 |  4:32.23 | 290643 | 311065


范围状态及错误

已选择范围

     文件名 E:\bhvvvv\原唱原曲11\群星 - 原唱原曲11.wav

     峰值电平 97.5 %
     抓取速度 7.5 X
     范围质量 100.0 %
     复制 CRC A04D849D
     复制成功

没有错误发生

状态报告结尾

---- CUETools DB Plugin V2.1.3

[CTDB TOCID: hpPnGE6kOETjbYv.dTBiqcna6zQ-] disk not present in database, Submit result: database access error:


==== 记录校验日志 BF0EE55C5F5C50E8A491DC3CF845AFE0750EB62CF33FEABCDA46CF41E395D3C8 ====
回复 支持 反对

使用道具 举报

发表于 2017-10-8 12:41:29 | 显示全部楼层
群星《原唱原曲11鸳鸯路》
回复 支持 反对

使用道具 举报

发表于 2017-10-8 14:25:01 | 显示全部楼层
文件坏了,解压失败
回复 支持 反对

使用道具 举报

发表于 2017-10-8 20:53:49 | 显示全部楼层
群星《原唱原曲11鸳鸯路》
回复 支持 反对

使用道具 举报

发表于 2017-10-12 14:09:22 | 显示全部楼层
真的是不错啊 感谢分享
回复 支持 反对

使用道具 举报

发表于 2017-10-13 11:22:59 | 显示全部楼层
感謝樓主的分享,收下了。
回复 支持 反对

使用道具 举报

发表于 2017-10-13 15:25:31 | 显示全部楼层
原唱原曲11-鸳鸯路,感謝樓主
回复 支持 反对

使用道具 举报

发表于 2017-10-25 20:32:04 | 显示全部楼层
很好听的闽南语歌碟
回复 支持 反对

使用道具 举报

发表于 2017-11-6 18:27:04 | 显示全部楼层
感谢楼主分享好音乐,值得珍藏,下来听听!!
回复 支持 反对

使用道具 举报

发表于 2017-11-9 05:57:05 | 显示全部楼层
谢谢楼主的音乐分享
回复 支持 反对

使用道具 举报

发表于 2017-11-22 21:53:45 | 显示全部楼层
真的是不错群星《原唱原曲11鸳鸯路》【
回复 支持 反对

使用道具 举报

发表于 2017-11-29 10:56:47 | 显示全部楼层
谢谢楼主下载来听
回复 支持 反对

使用道具 举报

发表于 2017-12-8 10:45:57 | 显示全部楼层
谢谢楼主分享
回复 支持 反对

使用道具 举报

发表于 2018-3-6 22:35:19 | 显示全部楼层
谢谢楼主分享!
回复 支持 反对

使用道具 举报

您需要登录后才可以回帖 登录 | 注册会员

本版积分规则

Archiver|手机版|联系我们|风云音乐谷 ( 粤ICP备09098429号-2 )  

GMT+8, 2018-6-24 19:12 , Processed in 0.099509 second(s), 24 queries .

Powered by Discuz! X3.4

© 2001-2017 Comsenz Inc.

快速回复 返回顶部 返回列表