设为首页收藏本站

风云音乐谷

 找回密码
 注册会员

QQ登录

只需一步,快速开始

扫一扫,访问微社区


【揭露淘宝、微商卖U盘音乐、无损碟片15条惊天骗术】     【无损音乐下载、检测、使用、播放必备四步】

破解奥迪、途锐U盘播放wav、dts音乐方法 显示歌手和歌名的CD、DTS CD无损碟片制作教程 一键制作AC3 Audio DVD杜比音乐碟片
一键制作U盘(SD卡、TF卡)无损音乐教程 任何车型播放wav、flac、ape、dts无损音乐方法 一键制作DTS Audio DVD无损音乐碟片
一键批量抓取SACD光盘ISO镜像曲目的方法 一键制作世界最顶级的DVD Audio无损音乐碟片 一键制作WAV Audio DVD无损音乐碟片
U盘、碟片播放5.1环绕声dts音乐方法总结 一键制作U盘dts、wav、flac、ape视频音乐教程 一键制作DVD图片(视频)MV音乐碟片教程
查看: 476|回复: 11

[杂合专辑] 群星《原唱原曲12男人的坚持》【WAV+CUE/百度】

[复制链接]
发表于 2017-10-8 10:20:37 | 显示全部楼层 |阅读模式

这么精彩的内容,您还在等什么呢?马上注册风云音乐谷查看完整内容

您需要 登录 才可以下载或查看,没有帐号?注册会员

x
cover.jpg

专辑名称:原唱原曲12-男人的坚持
专辑艺人:群星
发行公司:上豪唱片有限公司
发行时间:2013年11月07日
专辑语种:台语
资源类型:WAV+CUE

专辑介绍:
收录多首最新超夯经典原声原影台语流行金曲!
动人的情歌,让人更感窝心
匠尽悲欢离合真情擎爱百听不厌
金曲歌王歌后联手出击
ㄠ5首冠军歌曲.原影原音重现
精采最强档的唱将值得你珍藏

专辑曲目:
01.男人的坚持 蔡小虎主唱 民视8点档 风水世家 片尾曲
02.满天星 黄思婷主唱 民视8点档 风水世家 片尾曲
03.老婆 杨静主唱 三立8点档 天下女人心 主题曲
04.天意 江志丰主唱 三立8点档 天下女人心 主题曲
05.今生的诺言 陈随意/谢宜君主唱 民视 封神榜 主题曲
06.欠天一滴泪 李明洋主唱 三立 戏说台湾 主题曲
07.伴相思 杨静/江志丰主唱 三立 戏说台湾 主题曲
08.再起东山 蔡义德主唱 三立 戏说台湾 片尾曲
09.你是我的命 江志丰/杨静主唱 民视 封神榜 主题曲
10.情深似海 蔡小虎主唱
11.梦袂醒 方怡萍主唱 三立 天下父母心 片尾曲
12.恩情似海 蔡义德主唱
13.爱你之后 朱海君主唱
14.成功 陈随意主唱
15.今生有缘 李明洋主唱




下载地址:

游客,如果您要查看本帖隐藏内容请回复



套图地址:

游客,如果您要查看本帖隐藏内容请回复

评分

参与人数 1威望积分 +500 风云金币 +3 收起 理由
爱的天堂 + 500 + 3 分享不易,加分支持

查看全部评分

回复

使用道具 举报

 楼主| 发表于 2017-10-8 10:21:10 | 显示全部楼层
Exact Audio Copy V1.0 beta 3 from 29. August 2011

EAC 抓取日志文件从6. 十月 2015, 3:11

群星 / 原唱原曲12

使用驱动器  :PIONEER DVD-RW  DVR-221L   Adapter: 1  ID: 1

读取模式      : 可靠Secure
使用精确流     : 是
清空音频缓存    : 是
使用 C2 指示器 : 否

读取偏移校正:               : 6
读取 Lead-In 和 Lead-Out : 否
用静音填充抓取中丢失偏移的采样       : 是
去除首尾静音块               : 否
在CRC 计算中使用了空样本       : 是
已用接口                  : Win NT 及 2000 本地 Win32 接口

所用输出模式: : 内部 WAV 函数
样本格式    : 44.100 Hz; 16 Bit; 立体声


已抓取 CD 的 TOC

     音轨 |    起始    |    长度    |  起始扇区  |  结束扇区  
    --------------------------------------------
      1 |  0:00.00 |  3:57.24 |      0 |  17798
      2 |  3:57.24 |  4:19.28 |  17799 |  37251
      3 |  8:16.52 |  4:57.24 |  37252 |  59550
      4 | 13:14.01 |  4:30.56 |  59551 |  79856
      5 | 17:44.57 |  4:37.05 |  79857 | 100636
      6 | 22:21.62 |  4:29.36 | 100637 | 120847
      7 | 26:51.23 |  4:47.42 | 120848 | 142414
      8 | 31:38.65 |  4:13.17 | 142415 | 161406
      9 | 35:52.07 |  5:00.27 | 161407 | 183933
     10 | 40:52.34 |  3:53.20 | 183934 | 201428
     11 | 44:45.54 |  4:07.20 | 201429 | 219973
     12 | 48:52.74 |  4:29.69 | 219974 | 240217
     13 | 53:22.68 |  4:30.29 | 240218 | 260496
     14 | 57:53.22 |  3:20.21 | 260497 | 275517
     15 | 61:13.43 |  4:22.29 | 275518 | 295196


范围状态及错误

已选择范围

     文件名 E:\bhvvvv\原唱原曲12\群星 - 原唱原曲12.wav

     峰值电平 93.3 %
     抓取速度 2.0 X
     范围质量 100.0 %
     复制 CRC D5EDB6FD
     复制成功

没有错误发生

状态报告结尾

---- CUETools DB Plugin V2.1.3

[CTDB TOCID: y_ifVVeLLqfSe2Xrf8_Y1iQBFBM-] disk not present in database, Submit result: y_ifVVeLLqfSe2Xrf8_Y1iQBFBM- has been uploaded


==== 记录校验日志 5D3CF9CC897F968431CEE767488677CB940531222804526EF5FD4741E2265373 ====
回复 支持 反对

使用道具 举报

发表于 2017-10-8 12:41:03 | 显示全部楼层
群星《原唱原曲12男人的坚持》
回复 支持 反对

使用道具 举报

发表于 2017-10-8 23:52:10 | 显示全部楼层
相当不错的好资源!衷心感谢分享,支持
回复 支持 反对

使用道具 举报

发表于 2017-10-13 11:23:07 | 显示全部楼层
感謝樓主的分享,收下了。
回复 支持 反对

使用道具 举报

发表于 2017-10-13 15:26:38 | 显示全部楼层
原唱原曲12-男人的坚持,感謝樓主分享
回复 支持 反对

使用道具 举报

发表于 2017-10-25 21:17:36 | 显示全部楼层
感谢楼主的辛苦分享
回复 支持 反对

使用道具 举报

发表于 2017-11-6 18:25:22 | 显示全部楼层
感谢楼主分享好音乐,值得珍藏,下来听听!!
回复 支持 反对

使用道具 举报

发表于 2017-11-9 05:59:56 | 显示全部楼层
谢谢楼主的音乐分享
回复 支持 反对

使用道具 举报

发表于 2017-11-22 13:20:24 | 显示全部楼层
感謝樓主的分享《原唱原曲12男人的坚持》【
回复 支持 反对

使用道具 举报

发表于 2018-1-26 18:22:56 | 显示全部楼层
不错  支持下  非常的喜欢
回复 支持 反对

使用道具 举报

发表于 2018-3-6 22:49:51 | 显示全部楼层
谢谢楼主分享!
回复 支持 反对

使用道具 举报

您需要登录后才可以回帖 登录 | 注册会员

本版积分规则

Archiver|手机版|联系我们|风云音乐谷 ( 粤ICP备09098429号-2 )  

GMT+8, 2018-6-24 19:17 , Processed in 0.099252 second(s), 21 queries .

Powered by Discuz! X3.4

© 2001-2017 Comsenz Inc.

快速回复 返回顶部 返回列表