设为首页收藏本站

风云音乐谷

 找回密码
 注册会员

QQ登录

只需一步,快速开始

扫一扫,访问微社区




重磅:普通音乐转dts5.1环绕声、提升8倍音质(不改音响、不动设备、不接线)新功能上线!!
任何2.0音乐转为dts5.1环绕声音乐教程 制作5.1环绕声DTS Audio DVD音乐碟片 音质原形毕露:批量真假无损音乐鉴别方法
不改音响+不动设备+不接线提升8倍效果 制作5.1环绕声AC3 Audio DVD音乐碟片 提升音乐效果:用高中低音、EQ均衡器实现
破解奥迪、途锐、途观 实现U盘无损音乐 制作2.0立体声WAV Audio DVD音乐碟片 独家 绝密功能:键智能音乐切割、分割教程
制作U盘无损、有损、2.0、5.1移动音乐 制作世界最顶级DVD Audio无损音乐碟片 制作无损、有损、2.0、5.1图片画面音乐碟片
制作U盘无损、有损、2.0、5.1视频音乐 制作显示歌手和歌名cd、dts cd无损碟片 制作无损、有损、2.0、5.1视频画面音乐碟片

【揭露淘宝、微商U盘音乐和碟片15大骗术】            【新手必读:无损音乐下载、检测、制作、播放】   

查看: 1431|回复: 24

[杂合专辑] 群星《原唱原曲15今生未了情》【WAV+CUE/百度】

[复制链接]
发表于 2017-10-8 11:06:13 | 显示全部楼层 |阅读模式

这么精彩的内容,您还在等什么呢?马上注册风云音乐谷查看完整内容

您需要 登录 才可以下载或查看,没有帐号?注册会员

x
cover.jpg

专辑名称:原唱原曲15-今生未了情
专辑艺人:群星
发行公司:上豪唱片有限公司
发行时间:2015年02月04日
专辑语种:台语
资源类型:WAV+CUE

专辑介绍:
收录多首最新超夯经典原声原影台语流行金曲!
动人的情歌,让人更感窝心
匠尽悲欢离合真情擎爱百听不厌
金曲歌王歌后联手出击
ㄠ5首冠军歌曲.
原影原音重现
精采最强档的唱将值得你珍藏

专辑曲目:
01.今生未了情 龙千玉主唱 民视八点档 龙飞凤舞 片尾曲
02.阮的幸福 陈淑萍主唱 三立八点档 世间情 片头曲
03.思念你的心 谢金晶主唱 三立八点档 世间情 片尾曲
04.为爱相逢 林良欢/翁立友主唱 三立八点档 世间情 片头曲
05.露水情 杨静主唱 三立 戏说台湾 片尾曲
06.女人青春梦 陈思安/方宁主唱
07.呒通做歹子 袁小迪主唱 三立 戏说台湾 片尾曲
08.美丽的镜头 龙千玉/江志美主唱
09.一句话 蔡义德主唱 三立 戏说台湾 片尾曲
10.感谢您爱过我 袁小迪/乔幼主唱
11.情缘路 陈淑萍/翁立友主唱
12.苦旦 陈思安主唱
13.爱情的路 杨静/罗时丰主唱
14.新娘 谢宜君/陈随意主唱
15.云儿飘 黄思婷主唱  
16.心痛 谢宜君主唱



下载地址:

游客,如果您要查看本帖隐藏内容请回复


套图地址:

游客,如果您要查看本帖隐藏内容请回复

评分

参与人数 1威望积分 +500 风云金币 +3 收起 理由
爱的天堂 + 500 + 3 分享不易,加分支持

查看全部评分

回复

使用道具 举报

 楼主| 发表于 2017-10-8 11:06:58 | 显示全部楼层
Exact Audio Copy V1.0 beta 3 from 29. August 2011

EAC 抓取日志文件从6. 十月 2015, 5:04

群星 / 原唱原曲15

使用驱动器  :PIONEER DVD-RW  DVR-221L   Adapter: 1  ID: 1

读取模式      : 可靠Secure
使用精确流     : 是
清空音频缓存    : 是
使用 C2 指示器 : 否

读取偏移校正:               : 6
读取 Lead-In 和 Lead-Out : 否
用静音填充抓取中丢失偏移的采样       : 是
去除首尾静音块               : 否
在CRC 计算中使用了空样本       : 是
已用接口                  : Win NT 及 2000 本地 Win32 接口

所用输出模式: : 内部 WAV 函数
样本格式    : 44.100 Hz; 16 Bit; 立体声


已抓取 CD 的 TOC

     音轨 |    起始    |    长度    |  起始扇区  |  结束扇区  
    --------------------------------------------
      1 |  0:00.00 |  4:12.22 |      0 |  18921
      2 |  4:12.22 |  4:17.27 |  18922 |  38223
      3 |  8:29.49 |  4:47.25 |  38224 |  59773
      4 | 13:16.74 |  4:25.22 |  59774 |  79670
      5 | 17:42.21 |  4:38.23 |  79671 | 100543
      6 | 22:20.44 |  4:57.32 | 100544 | 122850
      7 | 27:18.01 |  4:10.24 | 122851 | 141624
      8 | 31:28.25 |  4:05.25 | 141625 | 160024
      9 | 35:33.50 |  4:30.23 | 160025 | 180297
     10 | 40:03.73 |  4:37.27 | 180298 | 201099
     11 | 44:41.25 |  5:31.24 | 201100 | 225948
     12 | 50:12.49 |  5:04.15 | 225949 | 248763
     13 | 55:16.64 |  4:04.20 | 248764 | 267083
     14 | 59:21.09 |  4:27.11 | 267084 | 287119
     15 | 63:48.20 |  4:32.25 | 287120 | 307544
     16 | 68:20.45 |  4:11.22 | 307545 | 326391


范围状态及错误

已选择范围

     文件名 E:\bhvvvv\原唱原曲15\群星 - 原唱原曲15.wav

     峰值电平 92.1 %
     抓取速度 2.1 X
     范围质量 100.0 %
     复制 CRC D3754C76
     复制成功

没有错误发生

状态报告结尾

---- CUETools DB Plugin V2.1.3

[CTDB TOCID: XT2VM4YPIoWrpwiOtupq8Pewmjs-] found, Submit result: XT2VM4YPIoWrpwiOtupq8Pewmjs- has bee