设为首页收藏本站

风云音乐谷

 找回密码
 注册会员

QQ登录

只需一步,快速开始

扫一扫,访问微社区




重磅:普通音乐转dts5.1环绕声、提升8倍音质(不改音响、不动设备、不接线)新功能上线!!
任何2.0音乐转为dts5.1环绕声音乐教程 制作5.1环绕声DTS Audio DVD音乐碟片 音质原形毕露:批量真假无损音乐鉴别方法
不改音响+不动设备+不接线提升8倍效果 制作5.1环绕声AC3 Audio DVD音乐碟片 提升音乐效果:用高中低音、EQ均衡器实现
破解奥迪、途锐、途观 实现U盘无损音乐 制作2.0立体声WAV Audio DVD音乐碟片 独家 绝密功能:键智能音乐切割、分割教程
制作U盘无损、有损、2.0、5.1移动音乐 制作世界最顶级DVD Audio无损音乐碟片 制作无损、有损、2.0、5.1图片画面音乐碟片
制作U盘无损、有损、2.0、5.1视频音乐 制作显示歌手和歌名cd、dts cd无损碟片 制作无损、有损、2.0、5.1视频画面音乐碟片

【揭露淘宝、微商U盘音乐和碟片15大骗术】            【新手必读:无损音乐下载、检测、制作、播放】   

查看: 1207|回复: 22

[杂合专辑] 群星《原唱原曲16幸福的嫁妆》【WAV+CUE/百度】

[复制链接]
发表于 2017-10-8 11:18:19 | 显示全部楼层 |阅读模式

这么精彩的内容,您还在等什么呢?马上注册风云音乐谷查看完整内容

您需要 登录 才可以下载或查看,没有帐号?注册会员

x
cover.jpg

专辑名称:原唱原曲16-幸福的嫁妆
专辑艺人:群星
发行公司:上豪唱片有限公司
发行时间:2015年06月25日
专辑语种:台语
资源类型:WAV+CUE

专辑介绍:
收录多首最新超夯经典原声原影台语流行金曲!
动人的情歌,让人更感窝心
匠尽悲欢离合真情擎爱百听不厌
金曲歌王歌后联手出击
ㄠ5首冠军歌曲.
原影原音重现
精采最强档的唱将值得你珍藏

专辑曲目:
01.幸福的嫁妆 向蕙玲主唱 民视八点档 嫁妆 片尾曲
02.绝情路 翁立友主唱 三立八点档 世间情 主题曲
03.思念的梦 乔幼主唱 三立 戏说台湾 片尾曲
04.多情玫瑰 张蓉蓉主唱 三立 戏说台湾 片尾曲
05.限时批 翁立友主唱 民视 美凤有约 金曲MV  
06.恆春姑娘 张秀卿主唱 民视 美凤有约 金曲MV  
07.华佗 江志丰主唱  
08.爱你的记誌 向蕙玲主唱
09.美丽娜鲁湾 张蓉蓉主唱  
10.事到如今 乔幼主唱  
11.那么爱你 张秀卿主唱
12.轻轻一句话 江志丰主唱
13.幸福花 龙千玉主唱
14.姊妹ㄚ伴 谢金晶主唱 华视八点档 爱你无条件 插曲
15.情雨飞 陈淑萍主唱
16.新娘纱 杨静主唱




下载地址:

游客,如果您要查看本帖隐藏内容请回复



套图地址:

游客,如果您要查看本帖隐藏内容请回复

评分

参与人数 1威望积分 +500 风云金币 +3 收起 理由
爱的天堂 + 500 + 3 分享不易,加分支持

查看全部评分

回复

使用道具 举报

 楼主| 发表于 2017-10-8 11:19:07 | 显示全部楼层
Exact Audio Copy V1.0 beta 3 from 29. August 2011

EAC 抓取日志文件从6. 十月 2015, 5:42

群星 / 原唱原曲16

使用驱动器  :PIONEER DVD-RW  DVR-221L   Adapter: 1  ID: 1

读取模式      : 可靠Secure
使用精确流     : 是
清空音频缓存    : 是
使用 C2 指示器 : 否

读取偏移校正:               : 6
读取 Lead-In 和 Lead-Out : 否
用静音填充抓取中丢失偏移的采样       : 是
去除首尾静音块               : 否
在CRC 计算中使用了空样本       : 是
已用接口                  : Win NT 及 2000 本地 Win32 接口

所用输出模式: : 内部 WAV 函数
样本格式    : 44.100 Hz; 16 Bit; 立体声


已抓取 CD 的 TOC

     音轨 |    起始    |    长度    |  起始扇区  |  结束扇区  
    --------------------------------------------
      1 |  0:00.00 |  4:24.24 |      0 |  19823
      2 |  4:24.24 |  4:34.08 |  19824 |  40381
      3 |  8:58.32 |  4:25.26 |  40382 |  60282
      4 | 13:23.58 |  3:45.24 |  60283 |  77181
      5 | 17:09.07 |  4:57.27 |  77182 |  99483
      6 | 22:06.34 |  3:48.32 |  99484 | 116615
      7 | 25:54.66 |  4:42.25 | 116616 | 137790
      8 | 30:37.16 |  4:44.24 | 137791 | 159114
      9 | 35:21.40 |  5:04.20 | 159115 | 181934
     10 | 40:25.60 |  4:16.28 | 181935 | 201162
     11 | 44:42.13 |  4:31.30 | 201163 | 221517
     12 | 49:13.43 |  4:31.24 | 221518 | 241866
     13 | 53:44.67 |  5:09.22 | 241867 | 265063
     14 | 58:54.14 |  3:30.42 | 265064 | 280855
     15 | 62:24.56 |  4:16.23 | 280856 | 300078
     16 | 66:41.04 |  4:10.23 | 300079 | 318851


范围状态及错误

已选择范围

     文件名 E:\bhvvvv\原唱原曲16\群星 - 原唱原曲16.wav

     峰值电平 99.5 %
     抓取速度 2.0 X
     范围质量 100.0 %
     复制 CRC 620BC0BC
     复制成功

没有错误发生

状态报告结尾

---- CUETools DB Plugin V2.1.3

[CTDB TOCID: 9O9me7vdDP78eM2XfWC19Uuwjhc-] disk not present in database, Submit result: 9O9me7vdDP78eM2XfWC19Uuwjhc- has been uploaded


==== 记录校验日志 48038C8889B6600D987C6C7EE1A449CB042B0858D146D8C3DC780C796B044A51 ====
回复 支持 反对

使用道具 举报

发表于 2017-10-8 12:36:50 | 显示全部楼层
群星《原唱原曲16幸福的嫁妆》
回复 支持 反对

使用道具 举报

发表于 2017-10-8 14:59:15 | 显示全部楼层
辛苦啦,又是分享这么多,谢谢分享。

期待豪记原唱原曲19-24
回复 支持 反对

使用道具 举报

发表于 2017-10-8 19:49:05 | 显示全部楼层
期待豪记原唱原曲666666
回复 支持 反对

使用道具 举报

发表于 2017-10-9 17:38:53 | 显示全部楼层
真心喜欢这样的节目
回复 支持 反对

使用道具 举报

发表于 2017-10-13 11:27:00 | 显示全部楼层
感謝樓主的分享,收下了。
回复 支持 反对

使用道具 举报

发表于 2017-10-13 15:31:51 | 显示全部楼层
原唱原曲16-幸福的嫁妆,謝謝樓主分享大作,感恩
回复 支持 反对

使用道具 举报

发表于 2017-10-25 09:08:21 | 显示全部楼层
在各大音乐论坛里就数龙龙发的台语歌最多,加油啊!
回复 支持 反对

使用道具 举报

发表于 2017-10-25 20:26:44 | 显示全部楼层
好美的一张碟,我收下啦。谢楼主提供。
回复 支持 反对

使用道具 举报

发表于 2017-10-27 19:09:06 | 显示全部楼层
來回味這些好聽的台語歌曲
回复 支持 反对

使用道具 举报

发表于 2017-11-6 18:10:10 | 显示全部楼层
感谢楼主分享好音乐,值得珍藏,下来听听!!
回复 支持 反对

使用道具 举报

发表于 2017-11-9 05:43:30 | 显示全部楼层
谢谢楼主的音乐分享
回复 支持 反对

使用道具 举报

发表于 2017-11-16 15:25:01 | 显示全部楼层
群星《原唱原曲16幸福的嫁妆》【WAV+CUE/百度】
回复 支持 反对

使用道具 举报

发表于 2017-11-22 21:50:48 | 显示全部楼层
謝謝樓主分享大作,感恩群星《原唱原曲16幸福的嫁妆》【
回复 支持 反对

使用道具 举报

您需要登录后才可以回帖 登录 | 注册会员

本版积分规则

Archiver|手机版|联系我们|风云音乐谷 ( 粤ICP备09098429号-2 )  

GMT+8, 2018-10-19 15:04 , Processed in 1.699516 second(s), 24 queries .

Powered by Discuz! X3.4

© 2001-2017 Comsenz Inc.

快速回复 返回顶部 返回列表