设为首页收藏本站

风云音乐谷

 找回密码
 注册会员

QQ登录

只需一步,快速开始

扫一扫,访问微社区


【揭露淘宝、微商卖U盘音乐、无损碟片15条惊天骗术】     【无损音乐下载、检测、使用、播放必备四步】

破解奥迪、途锐U盘播放wav、dts音乐方法 显示歌手和歌名的CD、DTS CD无损碟片制作教程 一键制作AC3 Audio DVD杜比音乐碟片
一键制作U盘(SD卡、TF卡)无损音乐教程 任何车型播放wav、flac、ape、dts无损音乐方法 一键制作DTS Audio DVD无损音乐碟片
一键批量抓取SACD光盘ISO镜像曲目的方法 一键制作世界最顶级的DVD Audio无损音乐碟片 一键制作WAV Audio DVD无损音乐碟片
U盘、碟片播放5.1环绕声dts音乐方法总结 一键制作U盘dts、wav、flac、ape视频音乐教程 一键制作DVD图片(视频)MV音乐碟片教程
查看: 17107|回复: 342

[港台高清] [蓝光原盘]快乐天堂:滚石30演唱会2010 BDISO双碟[1080P/64G/快传]

  [复制链接]
发表于 2013-12-13 01:01:05 | 显示全部楼层 |阅读模式

这么精彩的内容,您还在等什么呢?马上注册风云音乐谷查看完整内容

您需要 登录 才可以下载或查看,没有帐号?注册会员

x

文件标题:Happy.Paradise.Rock.Records.30th.Anniversary.Live.In.Taipei.2010.Blu-ray.1080i.AVC.DTS-HDMA.5.1.CHDBits
影片类型:演唱会
影片发音:国语
內容物:2BD
影片字幕:1.隐藏式繁体 2.隐藏式简体
影片长度:320分钟

@演出人员:
伍佰&China Blue+五月天+张震岳&Free9 世纪摇滚组合SUPER BANDS大拼场
张震岳、杜德伟、顺子、热狗、马念先、顽童 摇滚嘻哈热情开趴
吴楚楚、李建复、邰肇玫、唐晓诗、马宜中、杨芳仪、王海玲 重温最纯真民歌时代
任贤齐、黄品源、小虫、曹格、卓文萱、黄鸿升、 刚泽斌、阿牛、2MORO、吴忠明、李岗霖、FUN4乐团
青春洋溢热力四射
周华健、辛晓琪、许景淳、赵咏华、李度、梁静茹、李丽芬、林凡、郁可唯、潘嘉丽 巨星情歌经典重现
黄韵玲、黄韵玲、娃娃、李明依、曹兰、锦绣二重唱、黄嘉千、赵之璧 合组**伶主持团体
访问一位庹宗华嘉宾 抒情搞笑动感兼具
五月天 摇滚天团回娘家 阿信歌声嗨翻小巨蛋 慷慨发言令全场动容
陈升、曹启泰、潘越云、李恕权、王识贤、李正帆、郁可唯 滚石的姿态、滚石的格调、无法归类的ROCK STYLE
伍佰、苏慧伦、刘若英、莫文蔚、吴佩慈、黄妃、李炳辉 LIVE KING 午夜场越夜乐high
就算超时罚款 全场歌手也要和你大合唱《快乐天堂》

滚石群星 / 快乐天堂 滚石30 Live in Taipei 2BD曲目:
【BD 1】
01 快乐天堂 / 泰武国小合唱团
02 凡人歌 / 伍佰&ChinaBlue 五月天 张震岳&FREE9
03 梦醒时分 / 伍佰&ChinaBlue
04 恋曲1980 / 五月天
05 爱情酿的酒 / 张震岳&FREE9
06 鹿港小镇 / 伍佰&ChinaBlue 五月天 张震岳&FREE9
07 回家 / 顺子
08 情人 / 杜德伟
09 钟爱一生+爱我别走 / 杜德伟 张震岳
10 星星堆满天 / 杨乃文
11 我爱台妹 / 热狗MC HotDog 顺子 张震岳
12 跆拳道 / 马念先
13 爱的初体验 / 张震岳&FREE9
14 嗨嗨人生 / 热狗MC HotDog 张震岳 顽童
15 拯救地球+脱掉 / 杜德伟
16 你的歌 / 吴楚楚
17 如果 / 邰肇玫
18 忘了我是谁 / 王海玲
19 风中的早晨 / 马宜中
20 秋蝉 / 杨芳仪
21 归去来兮+龙的传人 / 李建复
22 一条日光大道 / 吴楚楚 李建复 邰肇玫 唐晓诗 马宜中 杨芳仪 王海玲
23 再出发+那么爱你为什么+我是一只鱼+你怎么舍得我难过+伤心太平洋 / 任贤齐 黄品源
24 心太软 / 任贤齐 小虫
25 亲密爱人 / 小虫
26 一句话+不屑+爱的主旋律 / 卓文萱 黄鸿升
27 你在他? / 刚泽斌
28 寂寞先生+背叛 / 曹格
29 浪花一朵朵+小薇+对面的女孩看过来 / 任贤齐 黄品源 阿牛 卓文萱 黄鸿升 2MORO 吴忠明 李岗霖
30 当爱已成往事 / 周华健 辛晓琪 许景淳 赵咏华 李度 梁静茹
31 承认+最爱 / 辛晓琪
32 海上花+滚滚红尘 / 梁静茹
33 聪明糊涂心+最浪漫的事 / 赵咏华
34 得意的笑 / 李丽芬
35 尘缘+鬼迷心窍 / 李度
36 新不了情 / 林凡 潘嘉丽 郁可唯
37 玫瑰香+欢颜 / 赵咏华
38 爱江山更爱美人 / 李丽芬
39 玫瑰人生+睡吧!我的爱 / 许景淳
40 黎明不要来+追 / 周华健
41 守着阳光守着你 / 周华健 辛晓琪 许景淳 赵咏华 李度 梁静茹 林凡 郁可唯 潘嘉丽
42 蓝色啤酒海+河堤上的傻瓜+星期天不要见面+你给我记住 / 黄韵玲 娃娃 锦绣二重唱 曹兰
43 飘洋过海来看你+大雨 / 娃娃
44 改变+你是唯一 / 黄韵玲
45 算不算是一对恋人 / 李明依 庹宗华
46 爱已经满满的+在你和天空之间+明天也要作伴 / 黄嘉千 赵之璧 锦绣二重唱
47 就在今夜 / 黄韵玲 娃娃 李明依 曹兰 锦绣二重唱 黄嘉千 赵之璧
48 憨人 / 五月天
49 温柔 / 五月天
50 人生海海 / 五月天

【BD 2】
01 拥挤的乐园+秀,我还是要上 / 陈升 曹启泰
02 宁夏 / 李正帆 郁可唯
03 北京一夜 / 陈升 郁可唯
04 把悲伤留给自己 / 陈升
05 SUMMER / 陈升
06 春娇和志明 / 潘越云 陈升
07 桂花巷+纯情青春梦+情字这条路 / 潘越云 (陈升)
08 回+每次都想呼喊你的名字 / 李恕权
09 茶室春秋+舞池 / 潘越云 王识贤 陈升
10 天天天蓝+浮生千山路+我的思念+再见离别+无言的歌 / 潘越云
11 鼓声若响 / 陈升 潘越云 曹启泰
12 爱情的尽头 / 伍佰&ChinaBlue
13 树枝孤鸟 / 伍佰&ChinaBlue
14 挪威的森林 / 伍佰&ChinaBlue
15 Lemon Tree / 苏慧伦
16 被动 / 苏慧伦 伍佰
17 追追追 / 黄妃 苏慧伦
18 爱情限时批 / 黄妃 伍佰
19 来去夏威夷 / 李炳辉 伍佰
20 闪着泪光的决定 / 吴佩慈 伍佰
21 坚强的理由 / 莫文蔚 伍佰
22 没时间 / 莫文蔚 伍佰
23 很爱很爱你 / 刘若英 伍佰
24 浪人情歌 / 伍佰 刘若英
25 爱你一万年 / 伍佰 陈升
26 快乐天堂 / 大合唱
  1. DISC INFO:

  2. Disc Title: NBD_005
  3. Disc Size: 44,692,000,929 bytes
  4. Protection: AACS
  5. BD-Java: No
  6. BDInfo: 0.5.6

  7. PLAYLIST REPORT:

  8. Name: 00000.MPLS
  9. Length: 3:31:09 (h:m:s)
  10. Size: 44,020,285,440 bytes
  11. Total Bitrate: 27.80 Mbps

  12. VIDEO:

  13. Codec Bitrate Description
  14. ----- ------- -----------
  15. MPEG-4 AVC Video 20979 kbps 1080i / 29.970 fps / 16:9 / High Profile 4.1

  16. AUDIO:

  17. Codec Language Bitrate Description
  18. ----- -------- ------- -----------
  19. DTS-HD Master Audio Chinese 2817 kbps 5.1 / 48 kHz / 2817 kbps / 16-bit (DTS Core: 5.1 / 48 kHz / 1509 kbps / 16-bit)
  20. Dolby Digital Audio Chinese 640 kbps 5.1 / 48 kHz / 640 kbps
  21. LPCM Audio Chinese 1536 kbps 2.0 / 48 kHz / 1536 kbps / 16-bit

  22. SUBTITLES:

  23. Codec Language Bitrate Description
  24. ----- -------- ------- -----------
  25. Presentation Graphics Chinese 22.449 kbps
  26. Presentation Graphics Chinese 22.039 kbps

  27. FILES:

  28. Name Time In Length Size Total Bitrate
  29. ---- ------- ------ ---- -------------
  30. 00000.M2TS 0:00:00.000 3:00:22.344 37,556,133,888 27,762
  31. 00001.M2TS 3:00:22.344 0:30:47.011 6,462,947,328 27,993
  32. 00007.M2TS 3:31:09.356 0:00:00.600 1,204,224 16,040
复制代码
  1. DISC 2

  2. DISC INFO:

  3. Disc Title: NBD_005A
  4. Disc Size: 24,113,872,642 bytes
  5. Protection: AACS
  6. BD-Java: No
  7. BDInfo: 0.5.6

  8. PLAYLIST REPORT:

  9. Name: 00002.MPLS
  10. Length: 1:48:18 (h:m:s)
  11. Size: 23,446,585,344 bytes
  12. Total Bitrate: 28.86 Mbps

  13. VIDEO:

  14. Codec Bitrate Description
  15. ----- ------- -----------
  16. MPEG-4 AVC Video 22001 kbps 1080i / 29.970 fps / 16:9 / High Profile 4.1

  17. AUDIO:

  18. Codec Language Bitrate Description
  19. ----- -------- ------- -----------
  20. DTS-HD Master Audio Chinese 2844 kbps 5.1 / 48 kHz / 2844 kbps / 16-bit (DTS Core: 5.1 / 48 kHz / 1509 kbps / 16-bit)
  21. Dolby Digital Audio Chinese 640 kbps 5.1 / 48 kHz / 640 kbps
  22. LPCM Audio Chinese 1536 kbps 2.0 / 48 kHz / 1536 kbps / 16-bit

  23. SUBTITLES:

  24. Codec Language Bitrate Description
  25. ----- -------- ------- -----------
  26. Presentation Graphics Chinese 16.139 kbps
  27. Presentation Graphics Chinese 15.771 kbps

  28. FILES:

  29. Name Time In Length Size Total Bitrate
  30. ---- ------- ------ ---- -------------
  31. 00002.M2TS 0:00:00.000 1:48:17.724 23,445,381,120 28,866
  32. 00006.M2TS 1:48:17.724 0:00:00.600 1,204,224 16,040
复制代码
游客,如果您要查看本帖隐藏内容请回复

评分

参与人数 1威望积分 +888 风云金币 +30 收起 理由
树欲静 + 888 + 30 十分精彩,加分鼓励

查看全部评分

回复

使用道具 举报

发表于 2013-12-13 10:19:26 | 显示全部楼层
一个月前订了首版碟,上周到手,还有纪念品,太多回忆在里面了啊
回复 支持 反对

使用道具 举报

发表于 2013-12-13 10:26:39 | 显示全部楼层
太经典了,不顶不行!!!
回复 支持 反对

使用道具 举报

发表于 2013-12-13 10:55:41 | 显示全部楼层
经典中的极品,谢谢版主。
回复 支持 反对

使用道具 举报

发表于 2013-12-13 11:44:48 | 显示全部楼层
阵容真是太强大了
回复 支持 反对

使用道具 举报

发表于 2013-12-13 13:36:33 | 显示全部楼层
真心好资源,谢谢楼主分享。
回复 支持 反对

使用道具 举报

发表于 2013-12-13 13:58:28 | 显示全部楼层
不会是64G吧 有没有搞错
回复 支持 反对

使用道具 举报

发表于 2013-12-13 18:37:42 | 显示全部楼层
回复 支持 反对

使用道具 举报

发表于 2013-12-15 19:21:02 | 显示全部楼层
谢谢分享,辛苦。
回复 支持 反对

使用道具 举报

发表于 2013-12-15 22:21:29 | 显示全部楼层
这个经典。。。需要收藏,谢谢分享。。。
回复 支持 反对

使用道具 举报

发表于 2013-12-19 01:29:17 | 显示全部楼层
谢谢分享,收藏好高清。
回复 支持 反对

使用道具 举报

发表于 2013-12-19 10:10:10 | 显示全部楼层
经典中的极品,谢谢版主。
回复 支持 反对

使用道具 举报

发表于 2013-12-20 00:07:35 | 显示全部楼层
经典了,不顶不行!!!
回复 支持 反对

使用道具 举报

发表于 2013-12-20 15:37:12 | 显示全部楼层
经典收藏,谢谢楼主分享。
回复 支持 反对

使用道具 举报

发表于 2013-12-23 12:57:50 | 显示全部楼层
下载的镜像不知道怎么打开看
回复 支持 反对

使用道具 举报

您需要登录后才可以回帖 登录 | 注册会员

本版积分规则

Archiver|手机版|联系我们|风云音乐谷 ( 粤ICP备09098429号-2 )  

GMT+8, 2018-7-20 08:57 , Processed in 0.103524 second(s), 21 queries .

Powered by Discuz! X3.4

© 2001-2017 Comsenz Inc.

快速回复 返回顶部 返回列表