设为首页收藏本站

风云音乐谷

 找回密码
 注册会员

QQ登录

只需一步,快速开始

扫一扫,访问微社区


【揭露淘宝、微商卖U盘音乐、无损碟片15条惊天骗术】     【无损音乐下载、检测、使用、播放必备四步】

破解奥迪、途锐U盘播放wav、dts音乐方法 显示歌手和歌名的CD、DTS CD无损碟片制作教程 一键制作AC3 Audio DVD杜比音乐碟片
一键制作U盘(SD卡、TF卡)无损音乐教程 任何车型播放wav、flac、ape、dts无损音乐方法 一键制作DTS Audio DVD无损音乐碟片
一键批量抓取SACD光盘ISO镜像曲目的方法 一键制作世界最顶级的DVD Audio无损音乐碟片 一键制作WAV Audio DVD无损音乐碟片
U盘、碟片播放5.1环绕声dts音乐方法总结 一键制作U盘dts、wav、flac、ape视频音乐教程 一键制作DVD图片(视频)MV音乐碟片教程
查看: 2572|回复: 16

[劲爆专辑] [原创自购]王若琳 博尼的大冒险The Adventures Of Bernie The Schoolboy[WAV+CUE]

[复制链接]
发表于 2014-9-20 23:54:14 | 显示全部楼层 |阅读模式

这么精彩的内容,您还在等什么呢?马上注册风云音乐谷查看完整内容

您需要 登录 才可以下载或查看,没有帐号?注册会员

x
本帖最后由 舞钢市一高 于 2014-9-21 10:14 编辑

The Adventures of Bernie the Schoolboy
博尼的大冒險


第一次发帖,请大家多多支持
自购全新专辑,到货拆封后立即用EAC抓轨上传,绝对原汁原味!喜欢教主的不要错过!

本帖不设回复可见,但是要是觉得资源不错的话,麻烦回复下,这是对我的鼓励!


1 (9).jpg

1 (10).jpg

1 (11).jpg

1 (12).jpg


1 (13).jpg

1 (14).jpg


1 (15).jpg


格式: WAV+CUE
艺人: 王若琳
语种: 英语
唱片公司:  索尼音乐娱乐
发行时间:  2011年08月24日
专辑类别:  录音室专辑

专辑介绍:【Joanna奇幻歌声的创作历险】。博尼的大冒险,启动Joanna的音乐大变身。
有别于一般流行专辑,通常是以收录多首单曲而形成一张作品集合的形式,『博尼的大冒险 (The Adventures of Bernie the Schoolboy)』是一张实验概念性十足、风格强烈的”完整”专辑,整张专辑,需要从头到尾一口气听完,并且需要你用耳朵启动想象力,来”观看”这场故事。Joanna藉由博尼的大冒险,启动自我的音乐大变身,她就这样缓步地走下演唱舞台,将音乐叙事的人称,由第一人称转化至第三人称,肩并着肩坐到你的身边一同欣赏这场音乐奇幻剧。Joanna已经蜕变成一位声音的演员,原我灵魂就这样慢慢地被吹离开了身体,随着剧情,召唤着每个角色名字,等到再度睁开双眼之时,瞳孔的颜色早已改变。

在这场声音的历险当中,Joanna格放音乐结构,你只要闭上眼睛,她就会带着饶富生命力的音符,随着旋律来到你的面前,用唇齿之间吞吐的绝妙歌声,编码、传送、译码,哼着、唱着、咀嚼着、惊呼着、哀悼着…破解每个情绪密码,反射诠释出故事中各个角色的内心变化。Joanna是个将音符渗入灵魂之中,不断消化反刍的美丽说书人,从皮肉至骨架,从叹息至悲鸣,新辑里的13首歌,每一首都展现出自我独特的音乐性格,就像用着想像力观赏13部惊奇有趣的音乐剧。我们不难发现Joanna在『博尼的大冒险 (The Adventures of Bernie the Schoolboy)』当中的声音表情诠释,是多么令人惊艷的,她的歌声是最入戏的演员说着最令人动容的词句,与故事里各个不同角色揉为一体,展现出有着鲜明轮廓的声波质地,如此立体且独特,彷彿藉由这些歌曲,我们就能感受到那些微笑的嘴角、深锁的眉间、颤动的拳头、急促的脚步…


曲目
01 The Adventures of Bernie the Schoolboy博尼的大冒險
02 Apathy漠不關心
03 Chitterchat聊八卦
04 Plotting Revenge復仇記
05 The Fool愚人
06 Only Child獨生子
07 We Just Won’t Know大家的孤獨
08 The Bug竊聽蟲
09 I Blame it on You我怪在你身上
10 The Chicken Circus (Instrumental)公雞馬戲團 (器樂曲)
11 Chitterchat (Reprise)聊八卦 (重奏)
12 The Revenge of the Farm Aminals家畜的大復仇
13 The Adventure Comes to an End冒險的尾聲
以下是抓轨日志
Exact Audio Copy V1.0 beta 3 from 29. August 2011
EAC 抓取日志文件从20. 九月 2014, 15:10
Joanna Wang / The Adventures Of Bernie The Schoolboy
使用驱动器  PIONEER DVD-RW  DVR-XT11   Adapter: 2  ID: 1
读取模式 : 暴发
读取偏移校正:               : 0
读取 Lead-In Lead-Out :
用静音填充抓取中丢失偏移的采样       :
去除首尾静音块               :
CRC 计算中使用了空样本       :
已用接口                  : Win NT 2000 本地 Win32 接口
所用输出模式: : 内部 WAV 函数
样本格式    : 44.100 Hz; 16 Bit; 立体声
已抓取 CD TOC
     音轨 |    起始    |    长度    |  起始扇区  |  结束扇区  
    --------------------------------------------
      1 |  0:00.00 |  1:59.22 |      0 |   8946
      2 |  1:59.22 |  2:27.28 |   8947 |  19999
      3 |  4:26.50 |  1:59.62 |  20000 |  28986
      4 |  6:26.37 |  1:57.10 |  28987 |  37771
      5 |  8:23.47 |  2:54.37 |  37772 |  50858
      6 | 11:18.09 |  2:22.38 |  50859 |  61546
      7 | 13:40.47 |  1:18.25 |  61547 |  67421
      8 | 14:58.72 |  2:40.22 |  67422 |  79443
      9 | 17:39.19 |  2:31.27 |  79444 |  90795
     10 | 20:10.46 |  1:55.25 |  90796 |  99445
     11 | 22:05.71 |  2:06.04 |  99446 | 108899
     12 | 24:12.00 |  2:00.63 | 108900 | 117962
     13 | 26:12.63 |  3:22.14 | 117963 | 133126
范围状态及错误
已选择范围
     文件名 C:\Users\Administrator\Desktop\Joanna Wang - The Adventures Of Bernie The Schoolboy.wav
     计时问题 0:00:11 - 0:00:13
     计时问题 0:00:29
     峰值电平 98.8 %
     抓取速度 12.4 X
     复制 CRC FB025018
     复制结束
没有错误发生
状态报告结尾


下载地址: 任选其一(内附精美图片)
http://115.com/lb/5lbam1zy31ar 礼包码:5lbam1zy31ar
http://115.com/lb/5lbam173p5lm 网盘礼包码:5lbam173p5lm

评分

参与人数 1威望积分 +6 风云金币 +5 收起 理由
爱的天堂 + 6 + 5 稀有资源,感谢分享

查看全部评分

回复

使用道具 举报

发表于 2014-9-20 23:57:59 | 显示全部楼层
谢谢你的音乐分享,支持你的分享,继续加油啊
回复 支持 反对

使用道具 举报

发表于 2014-9-21 00:50:44 | 显示全部楼层
感谢楼主为风云带来如此给力的资源,发布辛苦了!
回复 支持 反对

使用道具 举报

发表于 2014-9-21 04:55:29 | 显示全部楼层
很好的音乐,楼主自抓辛苦了,谢谢!
回复 支持 反对

使用道具 举报

发表于 2014-10-1 11:12:55 | 显示全部楼层
鼓励新人踊跃发帖 感谢楼主无私分享
回复 支持 反对

使用道具 举报

发表于 2014-10-12 23:21:57 | 显示全部楼层
谢谢你的分享,请继续努力。
回复 支持 反对

使用道具 举报

发表于 2014-10-14 11:44:53 | 显示全部楼层
支持,要是有试听就更完美了。
回复 支持 反对

使用道具 举报

发表于 2014-10-25 08:30:15 | 显示全部楼层
支持  可惜没有试听
回复 支持 反对

使用道具 举报

发表于 2014-11-24 15:17:32 | 显示全部楼层
非常好!谢谢楼主分享好音乐!
回复 支持 反对

使用道具 举报

发表于 2014-12-26 13:42:22 | 显示全部楼层
我来看看,支持楼主分享!·
回复 支持 反对

使用道具 举报

发表于 2015-1-21 17:12:37 | 显示全部楼层
这个必须支持的,多谢。
回复 支持 反对

使用道具 举报

发表于 2015-2-12 18:36:58 | 显示全部楼层
感谢楼主,真心分享的大爱精神,风云谷,好音乐多多!
回复 支持 反对

使用道具 举报

发表于 2015-5-3 08:20:24 | 显示全部楼层
正在下载中。。。感谢楼主分享
回复 支持 反对

使用道具 举报

发表于 2015-8-2 16:04:37 | 显示全部楼层
不错的楼主,你辛苦了
回复 支持 反对

使用道具 举报

发表于 2016-6-21 08:32:10 | 显示全部楼层
感谢有你的分享。
回复 支持 反对

使用道具 举报

您需要登录后才可以回帖 登录 | 注册会员

本版积分规则

Archiver|手机版|联系我们|风云音乐谷 ( 粤ICP备09098429号-2 )  

GMT+8, 2018-6-24 03:51 , Processed in 0.098841 second(s), 20 queries .

Powered by Discuz! X3.4

© 2001-2017 Comsenz Inc.

快速回复 返回顶部 返回列表