设为首页收藏本站

风云音乐谷

 找回密码
 注册会员

QQ登录

只需一步,快速开始

扫一扫,访问微社区


【揭露淘宝、微商卖U盘音乐、无损碟片15条惊天骗术】     【无损音乐下载、检测、使用、播放必备四步】

破解奥迪、途锐U盘播放wav、dts音乐方法 显示歌手和歌名的CD、DTS CD无损碟片制作教程 一键制作AC3 Audio DVD杜比音乐碟片
一键制作U盘(SD卡、TF卡)无损音乐教程 任何车型播放wav、flac、ape、dts无损音乐方法 一键制作DTS Audio DVD无损音乐碟片
一键批量抓取SACD光盘ISO镜像曲目的方法 一键制作世界最顶级的DVD Audio无损音乐碟片 一键制作WAV Audio DVD无损音乐碟片
U盘、碟片播放5.1环绕声dts音乐方法总结 一键制作U盘dts、wav、flac、ape视频音乐教程 一键制作DVD图片(视频)MV音乐碟片教程
查看: 6665|回复: 77

[靓丽女声] 【闽南语巨星之 黄乙玲 】- 《非常精选》FLAC/CUE/百度

  [复制链接]
发表于 2014-12-14 11:33:53 | 显示全部楼层 |阅读模式

这么精彩的内容,您还在等什么呢?马上注册风云音乐谷查看完整内容

您需要 登录 才可以下载或查看,没有帐号?注册会员

x
本帖最后由 以和为贵 于 2014-12-14 12:49 编辑

cover.jpg

cd.jpg

back.jpg

lyric.jpg

专辑名称:福建巨星非常精选1
专辑歌手:黃乙玲  
发行公司:荣星制作 (荣机构)
发行地区:新加坡


01.爱到才知痛 (1997)
02.爱情的酒拢袂退(1994)
03.心肝乱糟糟 (1988)
04.感谢无情人 (1998)
05.海波浪 (2001)
06.爱你无条件 (1997)
07.受伤的心 (1993)
08.讲什么山盟海誓 (1986)
09.水泼落地难收回 (1989)
10.甘甘的爱 (1995)
11.无稳定的爱 (1988)
12.闪无路 (1988)
13.六月割菜假有心 (1988)
14.收不回的爱 (1987)
15.摸心肝想看觅 (1990)
16.烧滚滚冷冰冰 (1994)
17.成功一定是咱的 (1991)
18.孤女的愿望 (1996)

===================================================
使用驱动器  :HL-DT-STDVDRAM GSA-4084N   Adapter: 0  ID: 0

读取模式     : 保护
使用精确流   : 是
废除音频缓冲 : 是
使用 C2 指针 : 否

读取偏移校正                   : 0
读取 Lead-In 和 Lead-Out       : 否
用静音填充抓取中丢失偏移的采样 : 是
去除首尾静音块                 : 否
在 CRC 计算中使用了空样本      : 是
已用接口                       : Win NT 及 2000 本地 Win32 接口

所用输出格式   : 用户定义的编码器
已选比特率     : 768 kBit/s
质量           : 高
添加 ID3 标签  : 否
命令行压缩器   : C:\Program Files\Exact Audio Copy\FLAC\FLAC.EXE
附加命令行参数 : -6 -V -T "ARTIST=%a" -T "TITLE=%t" -T "ALBUM=%g" -T "DATE=%y" -T "TRACKNUMBER=%n" -T "GENRE=%m" -T "COMMENT=%e" %s -o %d


被抓轨 CD 的 TOC

     音轨 |   开始   |   长度   | 起始扇区 | 结尾扇区
    --------------------------------------------------
       1  |  0:00.00 |  4:43.02 |       0  |   21226  
       2  |  4:43.02 |  4:06.08 |   21227  |   39684  
       3  |  8:49.10 |  4:12.16 |   39685  |   58600  
       4  | 13:01.26 |  4:20.03 |   58601  |   78103  
       5  | 17:21.29 |  4:46.65 |   78104  |   99618  
       6  | 22:08.19 |  4:32.57 |   99619  |  120075  
       7  | 26:41.01 |  3:57.57 |  120076  |  137907  
       8  | 30:38.58 |  4:06.08 |  137908  |  156365  
       9  | 34:44.66 |  4:02.21 |  156366  |  174536  
      10  | 38:47.12 |  3:25.14 |  174537  |  189925  
      11  | 42:12.26 |  3:43.36 |  189926  |  206686  
      12  | 45:55.62 |  3:34.70 |  206687  |  222806  
      13  | 49:30.57 |  3:56.53 |  222807  |  240559  
      14  | 53:27.35 |  3:36.25 |  240560  |  256784  
      15  | 57:03.60 |  3:57.18 |  256785  |  274577  
      16  | 61:01.03 |  4:20.68 |  274578  |  294145  
      17  | 65:21.71 |  3:38.32 |  294146  |  310527  
      18  | 69:00.28 |  3:31.32 |  310528  |  326384  


范围状态及错误

已选择范围

     文件名 F:\New Folder\黄乙玲 - 福建巨星非常精选1.wav

     峰值电平 100.0 %
     范围质量 100.0 %
     复制 CRC C3CDD9EA
     复制成功

没有错误发生

状态报告结尾
=============================================

声明:
本音乐属唱片公司所有,只可用于个人试听交流使用,
禁用于任何商业用途或公开传播的场合, 请在试听后24小时内删除。
本人不承担与之相关的一切法律责任,
如您喜欢此CD的内容,请购买正版CD!


游客,如果您要查看本帖隐藏内容请回复

评分

参与人数 1威望积分 +500 风云金币 +2 收起 理由
爱的天堂 + 500 + 2 分享不易,加分支持

查看全部评分

回复

使用道具 举报

发表于 2014-12-14 18:53:47 | 显示全部楼层
下来听听,谢谢楼主。
回复 支持 反对

使用道具 举报

发表于 2014-12-14 22:32:54 | 显示全部楼层
谢谢版主分享!!!
回复 支持 反对

使用道具 举报

发表于 2014-12-14 23:53:30 | 显示全部楼层
下载慢慢听,谢谢。
回复 支持 反对

使用道具 举报

发表于 2014-12-15 09:15:59 | 显示全部楼层
黄乙玲的歌,非常喜欢,谢谢分享!!!
回复 支持 反对

使用道具 举报

发表于 2014-12-18 00:28:32 | 显示全部楼层
冲着爱你无条件来的
回复 支持 反对

使用道具 举报

发表于 2014-12-18 21:09:39 | 显示全部楼层
和为贵,好听得网名。谢谢提供。
回复 支持 反对

使用道具 举报

发表于 2014-12-21 17:07:09 | 显示全部楼层
和为贵,好听得网名。谢谢提供
回复 支持 反对

使用道具 举报

发表于 2014-12-29 16:39:17 | 显示全部楼层
闽南语巨星之 黄乙玲 - 《非常精选》
回复 支持 反对

使用道具 举报

发表于 2014-12-30 08:18:52 | 显示全部楼层
闽南歌曲好好听下,谢谢分享~
回复 支持 反对

使用道具 举报

发表于 2015-1-2 10:37:37 | 显示全部楼层
黄乙玲的经典闽南语歌曲,谢谢分享
回复 支持 反对

使用道具 举报

发表于 2015-1-2 16:49:58 | 显示全部楼层
黃乙玲清新高亢聲音,很有特色
多謝版主分享
回复 支持 反对

使用道具 举报

发表于 2015-1-5 02:04:52 | 显示全部楼层
非常非常好,谢谢
回复 支持 反对

使用道具 举报

发表于 2015-1-20 22:10:42 | 显示全部楼层
非常喜欢,谢谢分享!!!
回复 支持 反对

使用道具 举报

发表于 2015-1-24 11:17:05 | 显示全部楼层
黄乙玲的歌还是好听的!
回复 支持 反对

使用道具 举报

您需要登录后才可以回帖 登录 | 注册会员

本版积分规则

Archiver|手机版|联系我们|风云音乐谷 ( 粤ICP备09098429号-2 )  

GMT+8, 2018-6-24 19:16 , Processed in 0.103341 second(s), 20 queries .

Powered by Discuz! X3.4

© 2001-2017 Comsenz Inc.

快速回复 返回顶部 返回列表