设为首页收藏本站

风云音乐谷

 找回密码
 注册会员

QQ登录

只需一步,快速开始

扫一扫,访问微社区


【揭露淘宝、微商卖U盘音乐、无损碟片15条惊天骗术】     【无损音乐下载、检测、使用、播放必备四步】

破解奥迪、途锐U盘播放wav、dts音乐方法 显示歌手和歌名的CD、DTS CD无损碟片制作教程 一键制作AC3 Audio DVD杜比音乐碟片
一键制作U盘(SD卡、TF卡)无损音乐教程 任何车型播放wav、flac、ape、dts无损音乐方法 一键制作DTS Audio DVD无损音乐碟片
一键批量抓取SACD光盘ISO镜像曲目的方法 一键制作世界最顶级的DVD Audio无损音乐碟片 一键制作WAV Audio DVD无损音乐碟片
U盘、碟片播放5.1环绕声dts音乐方法总结 一键制作U盘dts、wav、flac、ape视频音乐教程 一键制作DVD图片(视频)MV音乐碟片教程
查看: 5504|回复: 74

[经典男声] 【闽南语巨星之 陈一郎 】- 《非常精选》FLAC/CUE/百度

  [复制链接]
发表于 2014-12-15 10:18:50 | 显示全部楼层 |阅读模式

这么精彩的内容,您还在等什么呢?马上注册风云音乐谷查看完整内容

您需要 登录 才可以下载或查看,没有帐号?注册会员

x
本帖最后由 以和为贵 于 2014-12-15 10:19 编辑

cover_.jpg

back_.jpg

cd_.jpg

专辑名称:福建巨星非常精选1
专辑歌手:陈一郎  
发行公司:荣星制作 (荣机构)
发行地区:新加坡


01.留恋什路用
02.红灯的所在
03.男儿飘泊的心情
04.酒味,烟味
05.红灯码头
06.酒女,酒女
07.爽快干一杯
08.红灯美人
09.郎仔的脚步
10.朋友兄弟
11.用生命所爱的人
12.阿郎阿郎
13.饭碗
14.行船人纯情曲
15.妈妈情你也保重
16.LONG TIME NO SEE
17.谁人了解我
18.行船阿郎
===================================================
使用驱动器  :HL-DT-STDVDRAM GSA-4084N   Adapter: 0  ID: 0

读取模式     : 保护
使用精确流   : 是
废除音频缓冲 : 是
使用 C2 指针 : 否

读取偏移校正                   : 0
读取 Lead-In 和 Lead-Out       : 否
用静音填充抓取中丢失偏移的采样 : 是
去除首尾静音块                 : 否
在 CRC 计算中使用了空样本      : 是
已用接口                       : Win NT 及 2000 本地 Win32 接口

所用输出格式   : 用户定义的编码器
已选比特率     : 768 kBit/s
质量           : 高
添加 ID3 标签  : 否
命令行压缩器   : C:\Program Files\Exact Audio Copy\FLAC\FLAC.EXE
附加命令行参数 : -6 -V -T "ARTIST=%a" -T "TITLE=%t" -T "ALBUM=%g" -T "DATE=%y" -T "TRACKNUMBER=%n" -T "GENRE=%m" -T "COMMENT=%e" %s -o %d


被抓轨 CD 的 TOC

     音轨 |   开始   |   长度   | 起始扇区 | 结尾扇区
    --------------------------------------------------
       1  |  0:00.00 |  3:44.65 |       0  |   16864  
       2  |  3:44.65 |  3:33.41 |   16865  |   32880  
       3  |  7:18.31 |  4:16.16 |   32881  |   52096  
       4  | 11:34.47 |  3:46.19 |   52097  |   69065  
       5  | 15:20.66 |  4:01.57 |   69066  |   87197  
       6  | 19:22.48 |  3:26.44 |   87198  |  102691  
       7  | 22:49.17 |  4:07.51 |  102692  |  121267  
       8  | 26:56.68 |  3:43.35 |  121268  |  138027  
       9  | 30:40.28 |  4:13.32 |  138028  |  157034  
      10  | 34:53.60 |  3:00.61 |  157035  |  170595  
      11  | 37:54.46 |  3:16.23 |  170596  |  185318  
      12  | 41:10.69 |  3:55.62 |  185319  |  203005  
      13  | 45:06.56 |  3:15.20 |  203006  |  217650  
      14  | 48:22.01 |  3:58.60 |  217651  |  235560  
      15  | 52:20.61 |  3:55.11 |  235561  |  253196  
      16  | 56:15.72 |  4:00.53 |  253197  |  271249  
      17  | 60:16.50 |  3:42.45 |  271250  |  287944  
      18  | 63:59.20 |  3:17.40 |  287945  |  302759  
      19  | 67:16.60 |  3:18.56 |  302760  |  317665  
      20  | 70:35.41 |  4:03.09 |  317666  |  335899  


范围状态及错误

已选择范围

     文件名 F:\New Folder\陈一郎 - 福建巨星非常精选4.wav

     峰值电平 98.6 %
     范围质量 100.0 %
     复制 CRC A630DD2B
     复制成功

没有错误发生

状态报告结尾
========================================================
声明:
本音乐属唱片公司所有,只可用于个人试听交流使用,
禁用于任何商业用途或公开传播的场合, 请在试听后24小时内删除。
本人不承担与之相关的一切法律责任,
如您喜欢此CD的内容,请购买正版CD!


游客,如果您要查看本帖隐藏内容请回复




评分

参与人数 1威望积分 +500 风云金币 +2 收起 理由
爱的天堂 + 500 + 2 分享不易,加分支持

查看全部评分

回复

使用道具 举报

发表于 2014-12-15 11:21:57 | 显示全部楼层
非常好!谢谢楼主分享好音乐!
回复 支持 反对

使用道具 举报

发表于 2014-12-15 14:13:40 | 显示全部楼层
要是能试听一下,就非常好了。
谢谢楼主分享!
回复 支持 反对

使用道具 举报

发表于 2014-12-15 14:20:35 | 显示全部楼层
谢谢分享。。。。。。。。。。。。。。
回复 支持 反对

使用道具 举报

发表于 2014-12-19 13:35:42 | 显示全部楼层
真正很经典,可惜他已经离开世界很多年了,乡土味的歌他唱得很赞,顶起感谢分享
回复 支持 反对

使用道具 举报

发表于 2014-12-19 14:21:06 | 显示全部楼层
好吧!  下载来听听
回复 支持 反对

使用道具 举报

发表于 2014-12-24 04:08:32 | 显示全部楼层
要是能试听一下,就非常好了
回复 支持 反对

使用道具 举报

发表于 2014-12-24 13:04:29 | 显示全部楼层
非常好!谢谢楼主分享好音乐!
回复 支持 反对

使用道具 举报

发表于 2014-12-28 21:13:07 | 显示全部楼层
非常喜欢,谢谢楼主分享
回复 支持 反对

使用道具 举报

发表于 2014-12-28 22:58:03 | 显示全部楼层
【闽南语巨星之 陈一郎 】- 《非常精选》
回复 支持 反对

使用道具 举报

发表于 2014-12-30 08:25:24 | 显示全部楼层
闽南歌曲系列,收藏一下。
回复 支持 反对

使用道具 举报

发表于 2015-1-1 21:42:47 | 显示全部楼层
感谢你的分享,辛苦了
回复 支持 反对

使用道具 举报

发表于 2015-1-2 15:25:34 | 显示全部楼层
很耐聽閩南歌曲,值得回味
多謝版主分享
回复 支持 反对

使用道具 举报

发表于 2015-1-2 15:25:50 | 显示全部楼层
很耐聽閩南歌曲,值得回味
多謝版主分享
回复 支持 反对

使用道具 举报

发表于 2015-1-5 07:29:30 | 显示全部楼层
非常非常好,谢谢
回复 支持 反对

使用道具 举报

您需要登录后才可以回帖 登录 | 注册会员

本版积分规则

Archiver|手机版|联系我们|风云音乐谷 ( 粤ICP备09098429号-2 )  

GMT+8, 2018-8-18 06:58 , Processed in 0.096752 second(s), 22 queries .

Powered by Discuz! X3.4

© 2001-2017 Comsenz Inc.

快速回复 返回顶部 返回列表