设为首页收藏本站

风云音乐谷

 找回密码
 注册会员

QQ登录

只需一步,快速开始

扫一扫,访问微社区


【揭露淘宝、微商卖U盘音乐、无损碟片15条惊天骗术】     【无损音乐下载、检测、使用、播放必备四步】

破解奥迪、途锐U盘播放wav、dts音乐方法 显示歌手和歌名的CD、DTS CD无损碟片制作教程 一键制作AC3 Audio DVD杜比音乐碟片
一键制作U盘(SD卡、TF卡)无损音乐教程 任何车型播放wav、flac、ape、dts无损音乐方法 一键制作DTS Audio DVD无损音乐碟片
一键批量抓取SACD光盘ISO镜像曲目的方法 一键制作世界最顶级的DVD Audio无损音乐碟片 一键制作WAV Audio DVD无损音乐碟片
U盘、碟片播放5.1环绕声dts音乐方法总结 一键制作U盘dts、wav、flac、ape视频音乐教程 一键制作DVD图片(视频)MV音乐碟片教程
查看: 3330|回复: 49

[靓丽女声] 【闽南语巨星之 陈盈洁 】- 《非常精选》FLAC/CUE/百度

  [复制链接]
发表于 2014-12-15 11:39:06 | 显示全部楼层 |阅读模式

这么精彩的内容,您还在等什么呢?马上注册风云音乐谷查看完整内容

您需要 登录 才可以下载或查看,没有帐号?注册会员

x
cover_.jpg

back_.jpg

cd_.jpg

专辑名称:福建巨星非常精选5
专辑歌手:陈盈洁
发行公司:荣星制作 (荣机构)
发行地区:新加坡





01. 风飞沙
02. 毛毛雨
03. 海海人生
04. 必巡的空姐
05. 伤心夜港边
06. 醉归暝
07. 乎我醉
08. 祈祷你平安
09. 野花
10. 自从爱著你
11. 野花亦是草
12. 给你骗不知
13. 一条手巾仔 (沈文程合唱)
14. 酒醉黑白话 (余天合唱)
15. 天要光
16. 我无醉是你茫
17. 云中月 (沈文程合唱)
18. 不通借酒来解愁

===================================================

使用驱动器  :HL-DT-STDVDRAM GSA-4084N   Adapter: 0  ID: 0

读取模式     : 保护
使用精确流   : 是
废除音频缓冲 : 是
使用 C2 指针 : 否

读取偏移校正                   : 0
读取 Lead-In 和 Lead-Out       : 否
用静音填充抓取中丢失偏移的采样 : 是
去除首尾静音块                 : 否
在 CRC 计算中使用了空样本      : 是
已用接口                       : Win NT 及 2000 本地 Win32 接口

所用输出格式   : 用户定义的编码器
已选比特率     : 768 kBit/s
质量           : 高
添加 ID3 标签  : 否
命令行压缩器   : C:\Program Files\Exact Audio Copy\FLAC\FLAC.EXE
附加命令行参数 : -6 -V -T "ARTIST=%a" -T "TITLE=%t" -T "ALBUM=%g" -T "DATE=%y" -T "TRACKNUMBER=%n" -T "GENRE=%m" -T "COMMENT=%e" %s -o %d


被抓轨 CD 的 TOC

     音轨 |   开始   |   长度   | 起始扇区 | 结尾扇区
    --------------------------------------------------
       1  |  0:00.00 |  4:10.61 |       0  |   18810  
       2  |  4:10.61 |  4:27.27 |   18811  |   38862  
       3  |  8:38.13 |  4:23.00 |   38863  |   58587  
       4  | 13:01.13 |  3:43.62 |   58588  |   75374  
       5  | 16:45.00 |  3:52.65 |   75375  |   92839  
       6  | 20:37.65 |  3:19.07 |   92840  |  107771  
       7  | 23:56.72 |  4:44.71 |  107772  |  129142  
       8  | 28:41.68 |  4:16.03 |  129143  |  148345  
       9  | 32:57.71 |  4:09.06 |  148346  |  167026  
      10  | 37:07.02 |  3:11.45 |  167027  |  181396  
      11  | 40:18.47 |  4:19.53 |  181397  |  200874  
      12  | 44:38.25 |  3:48.26 |  200875  |  218000  
      13  | 48:26.51 |  3:41.29 |  218001  |  234604  
      14  | 52:08.05 |  3:36.25 |  234605  |  250829  
      15  | 55:44.30 |  3:58.07 |  250830  |  268686  
      16  | 59:42.37 |  3:43.49 |  268687  |  285460  
      17  | 63:26.11 |  4:00.27 |  285461  |  303487  
      18  | 67:26.38 |  3:35.59 |  303488  |  319671  


范围状态及错误

已选择范围

     文件名 F:\New Folder\陈盈洁 - 福建巨星非常精选5.wav

     峰值电平 99.4 %
     范围质量 100.0 %
     复制 CRC 280559C9
     复制成功

没有错误发生

状态报告结尾


==============================================================

声明:
本音乐属唱片公司所有,只可用于个人试听交流使用,
禁用于任何商业用途或公开传播的场合, 请在试听后24小时内删除。
本人不承担与之相关的一切法律责任,
如您喜欢此CD的内容,请购买正版CD!

游客,如果您要查看本帖隐藏内容请回复

评分

参与人数 1威望积分 +500 风云金币 +2 收起 理由
爱的天堂 + 500 + 2 分享不易,加分支持

查看全部评分

回复

使用道具 举报

发表于 2014-12-15 14:11:40 | 显示全部楼层
咋没有试听的呢?有点不明白。
不过,还是要感谢楼主的分享!
回复 支持 反对

使用道具 举报

发表于 2014-12-15 16:47:55 | 显示全部楼层
感谢楼主的分享
回复 支持 反对

使用道具 举报

发表于 2014-12-15 20:32:21 | 显示全部楼层
感谢楼主




回复 支持 反对

使用道具 举报

发表于 2014-12-15 20:43:20 | 显示全部楼层
谢谢楼主的提供,好辛苦啦。
回复 支持 反对

使用道具 举报

发表于 2014-12-30 08:29:04 | 显示全部楼层
闽南歌曲系列,谢谢分享~
回复 支持 反对

使用道具 举报

发表于 2014-12-30 17:32:01 | 显示全部楼层
闽南语巨星之 - 《非常精选》haoting!
回复 支持 反对

使用道具 举报

发表于 2015-1-1 21:40:40 | 显示全部楼层
祝福楼主,新年快乐
回复 支持 反对

使用道具 举报

发表于 2015-1-2 16:37:27 | 显示全部楼层
陈盈洁聲音很有一種中低音色特色
好聽 多謝分享
回复 支持 反对

使用道具 举报

发表于 2015-1-3 10:55:27 | 显示全部楼层
感谢楼主的分享,支持
回复 支持 反对

使用道具 举报

发表于 2015-1-5 01:59:59 | 显示全部楼层
非常非常好,谢谢
回复 支持 反对

使用道具 举报

发表于 2015-1-16 19:01:36 来自手机 | 显示全部楼层
楼主辛苦了,谢谢分享这么些经典的歌曲。
回复 支持 反对

使用道具 举报

发表于 2015-1-21 17:03:10 | 显示全部楼层
都是好听的收藏了
回复 支持 反对

使用道具 举报

发表于 2015-2-8 21:43:42 | 显示全部楼层
好听,谢谢分享





回复 支持 反对

使用道具 举报

发表于 2015-2-20 20:48:48 | 显示全部楼层
陈盈洁的歌声应该不错
回复 支持 反对

使用道具 举报

您需要登录后才可以回帖 登录 | 注册会员

本版积分规则

Archiver|手机版|联系我们|风云音乐谷 ( 粤ICP备09098429号-2 )  

GMT+8, 2018-6-24 19:17 , Processed in 0.341215 second(s), 20 queries .

Powered by Discuz! X3.4

© 2001-2017 Comsenz Inc.

快速回复 返回顶部 返回列表