设为首页收藏本站

风云音乐谷

 找回密码
 注册会员

QQ登录

只需一步,快速开始

扫一扫,访问微社区


【揭露淘宝、微商卖U盘音乐、无损碟片15条惊天骗术】     【无损音乐下载、检测、使用、播放必备四步】

破解奥迪、途锐U盘播放wav、dts音乐方法 显示歌手和歌名的CD、DTS CD无损碟片制作教程 一键制作AC3 Audio DVD杜比音乐碟片
一键制作U盘(SD卡、TF卡)无损音乐教程 任何车型播放wav、flac、ape、dts无损音乐方法 一键制作DTS Audio DVD无损音乐碟片
一键批量抓取SACD光盘ISO镜像曲目的方法 一键制作世界最顶级的DVD Audio无损音乐碟片 一键制作WAV Audio DVD无损音乐碟片
U盘、碟片播放5.1环绕声dts音乐方法总结 一键制作U盘dts、wav、flac、ape视频音乐教程 一键制作DVD图片(视频)MV音乐碟片教程
查看: 3370|回复: 59

[粤剧辑] [新春礼包]文千岁.梁少芯.陈小汉.倪惠英.唱腔艺术精选《紫凤楼》[FLAC.分轨.百度.360]

  [复制链接]
发表于 2015-2-24 23:44:09 | 显示全部楼层 |阅读模式

这么精彩的内容,您还在等什么呢?马上注册风云音乐谷查看完整内容

您需要 登录 才可以下载或查看,没有帐号?注册会员

x
本帖最后由 轻舟 于 2015-2-25 02:23 编辑


文千岁.梁少芯.陈小汉.倪惠英.唱腔艺术精选《紫凤楼》[FLAC.384MB.百度.360]


专辑名称:紫凤楼
演唱艺人:文千岁.梁少芯.陈小汉.倪惠英
资源格式:FLAC
音乐类型:粤曲
出版发行:中国唱片广州公司出版

01.jpg

内容简介:

      阮山原幼失怙恃,蒙老相国元载教养成材,得与相国千金元凤兮青梅竹马,两小无猜,淑

女才郎,珠联璧合,已联婚约,且将入赘。惜乎天公不作美,山原偶于相府机密中惊悉有养育

深恩之未来岳丈,竟然是当年杀父母之仇人,晴天霹雳,胆破心摧。进退两难之际,无奈负义

弃婚,披发入山,逃情避世。后相国元载以党罪死狱中,凤兮配入宫庭,淡妆憔悴,冷落云屏

,十三载不言不笑,终幸放归,幽居紫凤楼;山原故人情重,再访长安,凤兮已泪尽失明,不

问尘世,旧情难再。往事如烟,阮山原求之再三,凤兮终不意转。叹有情人黯然而别。

详细资料:
粤曲《紫凤楼》故事

专辑曲目:
01.紫凤楼-陈小汉 梁少芯             23:02
02.重开并蒂莲-文千岁 倪惠英      16:40
03.花田错会-文千岁 梁少芯          21:56

虾米试听正在审核中...
游客,如果您要查看本帖隐藏内容请回复


说好了的新春礼物,现在才有时间整理,汗!
已经添加5%恢复记录,下载存储过程中如有破损,可以自行修复。

评分

参与人数 1威望积分 +500 风云金币 +6 收起 理由
爱的天堂 + 500 + 6 新年快乐

查看全部评分

回复

使用道具 举报

 楼主| 发表于 2015-2-24 23:46:37 | 显示全部楼层
Exact Audio Copy V1.0 beta 3 from 29. August 2011

EAC 抓取日志文件从29. 一月 2015, 19:28

陈小汉 倪惠英 / 紫凤楼

使用驱动器  :PIONEER DVD-RW  DVR-220L   Adapter: 2  ID: 1

读取模式      : 可靠Secure
使用精确流     : 是
清空音频缓存    : 否
使用 C2 指示器 : 否

组合读写偏移校正:             : 0
读取 Lead-In 和 Lead-Out : 否
用静音填充抓取中丢失偏移的采样       : 是
去除首尾静音块               : 否
在CRC 计算中使用了空样本       : 是
已用接口                  : Win NT 及 2000 本地 Win32 接口
间隙处理                  : 没检测到,因此追加到上一曲目

所用输出模式:   : 用户定义的编码器
已选比特率     : 768 kBit/s
质量        : 高
添加 ID3 标签 : 否
命令行压缩器    : C:\Program Files\Exact Audio Copy\FLAC\FLAC.EXE
附加命令行参数:  : -6 -V -T "ARTIST=%artist%" -T "TITLE=%title%" -T "ALBUM=%albumtitle%" -T "DATE=%year%" -T "TRACKNUMBER=%tracknr%" -T "GENRE=%genre%" -T "COMMENT=%comment%" -T "BAND=%albuminterpret%" -T "ALBUMARTIST=%albuminterpret%" -T "COMPOSER=%composer%" %haslyrics%--tag-from-file=LYRICS="%lyricsfile%"%haslyrics% -T "DISCNUMBER=%cdnumber%" -T "TOTALDISCS=%totalcds%" -T "TOTALTRACKS=%numtracks%" %hascover%--picture="%coverfile%"%hascover% %source% -o %dest%


已抓取 CD 的 TOC

     音轨 |    起始    |    长度    |  起始扇区  |  结束扇区  
    --------------------------------------------
      1 |  0:00.00 | 23:02.32 |      0 | 103681
      2 | 23:02.32 | 16:40.45 | 103682 | 178726
      3 | 39:43.02 | 21:56.23 | 178727 | 277449


音轨  1

     文件名 F:\无损音乐\MyCD\紫凤楼\01. 紫凤楼 - 陈小汉 倪惠英.wav

     峰值电平 91.0 %
     抓取速度 10.0 X
     音轨质量 99.9 %
     复制 CRC 47B70F5F
     复制成功

音轨  2

     文件名 F:\无损音乐\MyCD\紫凤楼\02. 重开并蒂莲 - 文千岁 倪惠英.wav

     峰值电平 100.0 %
     抓取速度 13.5 X
     音轨质量 100.0 %
     复制 CRC 0543E4E6
     复制成功

音轨  3

     文件名 F:\无损音乐\MyCD\紫凤楼\03. 花田错会 - 文千岁 梁少芯.wav

     峰值电平 100.0 %
     抓取速度 16.0 X
     音轨质量 100.0 %
     复制 CRC 6661E113
     复制成功

没有错误发生

状态报告结尾

---- CUETools DB Plugin V2.1.3

[CTDB TOCID: nC7woT2tG9Wficf2xa9TKa7.1dI-] disk not present in database, Submit result: database access error: 请求被中止: 请求已被取消。
回复 支持 反对

使用道具 举报

发表于 2015-2-25 00:48:57 | 显示全部楼层
感谢楼主分享,好礼不怕迟,十五还是拜年时。哈哈哈
回复 支持 反对

使用道具 举报

发表于 2015-2-25 01:00:12 | 显示全部楼层
楼主,解压密码不对,请检查。
回复 支持 反对

使用道具 举报

 楼主| 发表于 2015-2-25 01:51:01 | 显示全部楼层
茅开顿塞 发表于 2015-2-25 01:00
楼主,解压密码不对,请检查。

天啊,设密码时没有认真看,可能误按了一个字母,我都不知道密码了。只好重新打包上传了。
回复 支持 反对

使用道具 举报

发表于 2015-2-25 11:43:44 | 显示全部楼层
谢谢楼主分享下载收藏了。
回复 支持 反对

使用道具 举报

发表于 2015-2-25 20:41:12 | 显示全部楼层
新年快乐
回复 支持 反对

使用道具 举报

发表于 2015-2-25 23:14:23 | 显示全部楼层
太高兴了,又有曲听!
回复 支持 反对

使用道具 举报

发表于 2015-2-26 08:57:37 | 显示全部楼层
好听戏曲,值得回味。
回复 支持 反对

使用道具 举报

发表于 2015-2-26 10:17:16 | 显示全部楼层
谢谢楼主的热心分享。
回复 支持 反对

使用道具 举报

发表于 2015-2-26 15:14:46 | 显示全部楼层
谢谢楼主分享下载收藏了。
回复 支持 反对

使用道具 举报

发表于 2015-2-26 15:39:05 | 显示全部楼层
多谢楼主分享,大力支持! 这么多好碟,我还分享不了
回复 支持 反对

使用道具 举报

发表于 2015-2-27 02:41:21 | 显示全部楼层
这个经典,谢谢分享。
回复 支持 反对

使用道具 举报

发表于 2015-2-27 14:43:52 | 显示全部楼层
感谢楼主分享
回复 支持 反对

使用道具 举报

发表于 2015-2-27 18:14:07 | 显示全部楼层
喜歡粵曲,多謝分享!
回复 支持 反对

使用道具 举报

您需要登录后才可以回帖 登录 | 注册会员

本版积分规则

Archiver|手机版|联系我们|风云音乐谷 ( 粤ICP备09098429号-2 )  

GMT+8, 2018-7-17 22:54 , Processed in 0.094013 second(s), 19 queries .

Powered by Discuz! X3.4

© 2001-2017 Comsenz Inc.

快速回复 返回顶部 返回列表