设为首页收藏本站

风云音乐谷

 找回密码
 注册会员

QQ登录

只需一步,快速开始

扫一扫,访问微社区


【揭露淘宝、微商卖U盘音乐、无损碟片15条惊天骗术】     【无损音乐下载、检测、使用、播放必备四步】

破解奥迪、途锐U盘播放wav、dts音乐方法 显示歌手和歌名的CD、DTS CD无损碟片制作教程 一键制作AC3 Audio DVD杜比音乐碟片
一键制作U盘(SD卡、TF卡)无损音乐教程 任何车型播放wav、flac、ape、dts无损音乐方法 一键制作DTS Audio DVD无损音乐碟片
一键批量抓取SACD光盘ISO镜像曲目的方法 一键制作世界最顶级的DVD Audio无损音乐碟片 一键制作WAV Audio DVD无损音乐碟片
U盘、碟片播放5.1环绕声dts音乐方法总结 一键制作U盘dts、wav、flac、ape视频音乐教程 一键制作DVD图片(视频)MV音乐碟片教程
查看: 7103|回复: 288

[群星] [APE/整軌]Various - 非音乐vol21[百度/ 原抓]

[复制链接]
发表于 2015-7-30 19:51:19 | 显示全部楼层 |阅读模式

这么精彩的内容,您还在等什么呢?马上注册风云音乐谷查看完整内容

您需要 登录 才可以下载或查看,没有帐号?注册会员

x

123500azygigi5xkcbk11x.jpg


REM DISCID 970E650C
REM COMMENT "ExactAudioCopy v0.99pb3"
PERFORMER "Various"
TITLE "非音乐vol21"
FILE "Various - 非音乐vol21.ape" WAVE
  TRACK 01 AUDIO
    TITLE "Blue Moon"
    PERFORMER "The Deep Green Sea"
    FLAGS DCP
    INDEX 01 00:00:00
  TRACK 02 AUDIO
    TITLE "The Last Romance"
    PERFORMER "Arba Strap"
    FLAGS DCP
    INDEX 01 04:52:05
  TRACK 03 AUDIO
    TITLE "城市黄昏"
    PERFORMER "洪启"
    FLAGS DCP
    INDEX 01 08:48:68
  TRACK 04 AUDIO
    TITLE "Parting Gift"
    PERFORMER "Finna Apple"
    FLAGS DCP
    INDEX 01 13:50:15
  TRACK 05 AUDIO
    TITLE "禁用词语 U"
    PERFORMER "Archive"
    FLAGS DCP
    INDEX 01 17:29:74
  TRACK 06 AUDIO
    TITLE "The Surrender"
    PERFORMER "Limp Bizkit"
    FLAGS DCP
    INDEX 01 23:01:58
  TRACK 07 AUDIO
    TITLE "Hoppipolla"
    PERFORMER "Sigur Ros"
    FLAGS DCP
    INDEX 01 27:00:52
  TRACK 08 AUDIO
    TITLE "Radio/Vidio"
    PERFORMER "System Of A Down"
    FLAGS DCP
    INDEX 01 31:31:53
  TRACK 09 AUDIO
    TITLE "Vague MM"
    PERFORMER "Audiotransparent"
    FLAGS DCP
    INDEX 01 35:44:25
  TRACK 10 AUDIO
    TITLE "Warm Night"
    PERFORMER "The Concretes"
    FLAGS DCP
    INDEX 01 39:44:55
  TRACK 11 AUDIO
    TITLE "Camoe"
    PERFORMER "Bonnevill"
    FLAGS DCP
    INDEX 01 43:20:67
TRACK 12 AUDIO
    TITLE "水滴"
    PERFORMER "虎子与王娟"
    FLAGS DCP
    INDEX 01 48:49:63
TRACK 13 AUDIO
    TITLE "流动的青春"
    PERFORMER "廖岷"
    FLAGS DCP
    INDEX 01 53:19:63
TRACK 14 AUDIO
    TITLE "Auto Rock"
    PERFORMER "Mogwai"
    FLAGS DCP
    INDEX 01 58:30:63

评分

参与人数 1威望积分 +500 风云金币 +2 收起 理由
爱的天堂 + 500 + 2 分享不易,加分支持

查看全部评分

回复

使用道具 举报

 楼主| 发表于 2015-7-30 19:53:24 | 显示全部楼层
音乐杂志《非音乐》赠送的非主流音乐,如果有爆音,噪音,啸叫等情况出现,并非碟子的问题,请自行鉴别。曲目参考下面已编辑的cue。

游客,如果您要查看本帖隐藏内容请回复
回复 支持 反对

使用道具 举报

 楼主| 发表于 2015-7-30 19:53:43 | 显示全部楼层
Exact Audio Copy V0.99 prebeta 3 from 28. July 2007

EAC 抓取日志文件从12. 九月 2009, 16:45

Various / 非音乐vol21

使用驱动器  :TSSTcorpCDDVDW TS-H653B   Adapter: 0  ID: 1

读取模式     : 保护
使用精确流   : 是
废除音频缓冲 : 否
使用 C2 指针 : 否

组合读/写偏移校正              : 0
读取 Lead-In 和 Lead-Out       : 否
用静音填充抓取中丢失偏移的采样 : 是
去除首尾静音块                 : 否
在 CRC 计算中使用了空样本      : 否
已用接口                       : Win NT 及 2000 本地 Win32 接口

所用输出格式 : 内部 WAV 函数
样本格式     : 44.100 Hz;16 Bit;立体声


被抓轨 CD 的 TOC

     音轨 |   开始   |   长度   | 起始扇区 | 结尾扇区
    --------------------------------------------------
       1  |  0:00.00 |  4:54.12 |       0  |   22061  
       2  |  4:54.12 |  3:54.47 |   22062  |   39658  
       3  |  8:48.59 |  5:03.03 |   39659  |   62386  
       4  | 13:51.62 |  3:38.56 |   62387  |   78792  
       5  | 17:30.43 |  5:33.20 |   78793  |  103787  
       6  | 23:03.63 |  3:59.70 |  103788  |  121782  
       7  | 27:03.58 |  4:30.55 |  121783  |  142087  
       8  | 31:34.38 |  4:11.19 |  142088  |  160931  
       9  | 35:45.57 |  4:00.69 |  160932  |  179000  
      10  | 39:46.51 |  3:39.50 |  179001  |  195475  
      11  | 43:26.26 |  5:28.00 |  195476  |  220075  
      12  | 48:54.26 |  4:27.56 |  220076  |  240156  
      13  | 53:22.07 |  5:12.08 |  240157  |  263564  
      14  | 58:34.15 |  4:20.43 |  263565  |  283107  


范围状态及错误

已选择范围

     文件名 G:\@__自抓\Various - 非音乐vol21.wav

     峰值电平 100.0 %
     范围质量 100.0 %
     复制 CRC 95315C72
     复制成功

没有错误发生

状态报告结尾
回复 支持 反对

使用道具 举报

发表于 2015-8-1 17:37:46 | 显示全部楼层
谢谢楼主啊!收藏了,好资源
回复 支持 反对

使用道具 举报

发表于 2015-8-6 08:51:16 | 显示全部楼层
没想到  现在还能听到非音乐的东西!!!太好了!!!
回复 支持 反对

使用道具 举报

发表于 2015-8-22 11:59:56 | 显示全部楼层
好音乐 谢谢楼主 果断收下
回复 支持 反对

使用道具 举报

发表于 2015-8-28 14:28:02 | 显示全部楼层
制作得很不错楼主辛苦你了
回复 支持 反对

使用道具 举报

发表于 2015-9-3 16:57:41 | 显示全部楼层
听起来感觉不错。谢谢分享...
回复 支持 反对

使用道具 举报

发表于 2015-9-4 09:26:30 | 显示全部楼层
在此对楼主说声谢谢呀,我要下载这个了
回复 支持 反对

使用道具 举报

发表于 2015-9-9 21:57:24 | 显示全部楼层
谢谢楼主哦 下载欣赏了
回复 支持 反对

使用道具 举报

发表于 2015-9-10 14:47:35 | 显示全部楼层
十分感谢楼主的辛苦制作分享
回复 支持 反对

使用道具 举报

发表于 2015-9-12 15:47:58 | 显示全部楼层
十分感谢楼主的辛苦制作分享
回复 支持 反对

使用道具 举报

发表于 2015-9-13 04:56:43 | 显示全部楼层
谢谢楼主啊!收藏了,好资源
回复 支持 反对

使用道具 举报

发表于 2015-9-14 13:57:57 | 显示全部楼层
这个帖子真不错,感谢提供分享
回复 支持 反对

使用道具 举报

发表于 2015-9-15 04:36:31 | 显示全部楼层
先支持楼主再慢慢下载,谢谢!
回复 支持 反对

使用道具 举报

您需要登录后才可以回帖 登录 | 注册会员

本版积分规则

Archiver|手机版|联系我们|风云音乐谷 ( 粤ICP备09098429号-2 )  

GMT+8, 2018-6-23 18:11 , Processed in 0.097978 second(s), 20 queries .

Powered by Discuz! X3.4

© 2001-2017 Comsenz Inc.

快速回复 返回顶部 返回列表