设为首页收藏本站

风云音乐谷

 找回密码
 注册会员

QQ登录

只需一步,快速开始

扫一扫,访问微社区


【揭露淘宝、微商卖U盘音乐、无损碟片15条惊天骗术】     【无损音乐下载、检测、使用、播放必备四步】

破解奥迪、途锐U盘播放wav、dts音乐方法 显示歌手和歌名的CD、DTS CD无损碟片制作教程 一键制作AC3 Audio DVD杜比音乐碟片
一键制作U盘(SD卡、TF卡)无损音乐教程 任何车型播放wav、flac、ape、dts无损音乐方法 一键制作DTS Audio DVD无损音乐碟片
一键批量抓取SACD光盘ISO镜像曲目的方法 一键制作世界最顶级的DVD Audio无损音乐碟片 一键制作WAV Audio DVD无损音乐碟片
U盘、碟片播放5.1环绕声dts音乐方法总结 一键制作U盘dts、wav、flac、ape视频音乐教程 一键制作DVD图片(视频)MV音乐碟片教程
查看: 6625|回复: 292

[群星] [APE/整軌]Various - 非音乐vol22[百度/ 原抓]

[复制链接]
发表于 2015-7-30 19:54:55 | 显示全部楼层 |阅读模式

这么精彩的内容,您还在等什么呢?马上注册风云音乐谷查看完整内容

您需要 登录 才可以下载或查看,没有帐号?注册会员

x
124048h5hhc1hhzhux2hch.jpg

REM DISCID A10DD60C
REM COMMENT "ExactAudioCopy v0.99pb3"
PERFORMER "Various"
TITLE "非音乐vol22"
FILE "Various - 非音乐vol22.ape" WAVE
  TRACK 01 AUDIO
    TITLE "A Book Of Black Valentines"
    PERFORMER "Teargas & Plateglass"
    FLAGS DCP
    INDEX 01 00:00:00
  TRACK 02 AUDIO
    TITLE "无名"
    PERFORMER "Veltra"
    FLAGS DCP
    INDEX 00 04:42:14
    INDEX 01 04:44:08
  TRACK 03 AUDIO
    TITLE "Craigie Hill"
    PERFORMER "Cara Dillon"
    FLAGS DCP
    INDEX 00 08:36:52
    INDEX 01 08:38:26
  TRACK 04 AUDIO
    TITLE "Depth"
    PERFORMER "恋恋三季"
    FLAGS DCP
    INDEX 00 13:23:23
    INDEX 01 13:24:69
  TRACK 05 AUDIO
    TITLE "你在哪里?"
    PERFORMER "龚琳娜"
    FLAGS DCP
    INDEX 00 15:46:09
    INDEX 01 15:47:49
  TRACK 06 AUDIO
    TITLE "Terrible Angels"
    PERFORMER "Cocorosie"
    FLAGS DCP
    INDEX 00 19:10:14
    INDEX 01 19:11:54
  TRACK 07 AUDIO
    TITLE "罗强与错拍(节选 1Remix)"
    PERFORMER "DJ Ken & Random Beat"
    FLAGS DCP
    INDEX 00 23:24:31
    INDEX 01 23:26:18
  TRACK 08 AUDIO
    TITLE "Atta Girl"
    PERFORMER "Heavenly"
    FLAGS DCP
    INDEX 00 31:06:28
    INDEX 01 31:07:67
  TRACK 09 AUDIO
    TITLE "Tut Sera Comme Avant"
    PERFORMER "Dominique A"
    FLAGS DCP
    INDEX 00 35:06:74
    INDEX 01 35:08:41
  TRACK 10 AUDIO
    TITLE "Be Be Your Love"
    PERFORMER "Rachael Yamagata"
    FLAGS DCP
    INDEX 00 43:53:18
    INDEX 01 43:54:66
  TRACK 11 AUDIO
    TITLE "Ride On"
    PERFORMER "Neutral"
    FLAGS DCP
    INDEX 00 48:07:53
    INDEX 01 48:09:15
  TRACK 12 AUDIO
    TITLE "Unspoiled Monster"
    PERFORMER "World’s End Girlfriend"
    FLAGS DCP
    INDEX 00 52:30:16
    INDEX 01 52:31:57

评分

参与人数 1威望积分 +500 风云金币 +2 收起 理由
爱的天堂 + 500 + 2 分享不易,加分支持

查看全部评分

回复

使用道具 举报

 楼主| 发表于 2015-7-30 19:55:39 | 显示全部楼层
音乐杂志《非音乐》赠送的非主流音乐,如果有爆音,噪音,啸叫等情况出现,并非碟子的问题,请自行鉴别。曲目参考下面已编辑的cue。

游客,如果您要查看本帖隐藏内容请回复
回复 支持 反对

使用道具 举报

 楼主| 发表于 2015-7-30 19:55:56 | 显示全部楼层
Exact Audio Copy V0.99 prebeta 3 from 28. July 2007

EAC 抓取日志文件从12. 九月 2009, 17:36

Various / 非音乐vol22

使用驱动器  :TSSTcorpCDDVDW TS-H653B   Adapter: 0  ID: 1

读取模式     : 保护
使用精确流   : 是
废除音频缓冲 : 否
使用 C2 指针 : 否

组合读/写偏移校正              : 0
读取 Lead-In 和 Lead-Out       : 否
用静音填充抓取中丢失偏移的采样 : 是
去除首尾静音块                 : 否
在 CRC 计算中使用了空样本      : 否
已用接口                       : Win NT 及 2000 本地 Win32 接口

所用输出格式 : 内部 WAV 函数
样本格式     : 44.100 Hz;16 Bit;立体声


被抓轨 CD 的 TOC

     音轨 |   开始   |   长度   | 起始扇区 | 结尾扇区
    --------------------------------------------------
       1  |  0:00.00 |  4:44.08 |       0  |   21307  
       2  |  4:44.08 |  3:54.18 |   21308  |   38875  
       3  |  8:38.26 |  4:46.43 |   38876  |   60368  
       4  | 13:24.69 |  2:22.55 |   60369  |   71073  
       5  | 15:47.49 |  3:24.05 |   71074  |   86378  
       6  | 19:11.54 |  4:14.39 |   86379  |  105467  
       7  | 23:26.18 |  7:41.49 |  105468  |  140091  
       8  | 31:07.67 |  4:00.49 |  140092  |  158140  
       9  | 35:08.41 |  8:46.25 |  158141  |  197615  
      10  | 43:54.66 |  4:14.24 |  197616  |  216689  
      11  | 48:09.15 |  4:22.42 |  216690  |  236381  
      12  | 52:31.57 |  6:30.26 |  236382  |  265657  


范围状态及错误

已选择范围

     文件名 G:\@__自抓\Various - 非音乐vol22.wav

     峰值电平 100.0 %
     范围质量 100.0 %
     复制 CRC FD653E63
     复制成功

没有错误发生

状态报告结尾
回复 支持 反对

使用道具 举报

发表于 2015-8-1 09:27:50 | 显示全部楼层
先支持楼主再慢慢下载,谢谢!
回复 支持 反对

使用道具 举报

发表于 2015-8-6 08:51:57 | 显示全部楼层
没想到  现在还能听到非音乐的东西!!!太好了!!!
回复 支持 反对

使用道具 举报

发表于 2015-8-20 20:57:37 | 显示全部楼层
十分感谢楼主的辛苦制作分享
回复 支持 反对

使用道具 举报

发表于 2015-8-22 11:29:05 | 显示全部楼层
好听 谢谢楼主 好音乐
回复 支持 反对

使用道具 举报

发表于 2015-8-27 06:17:51 | 显示全部楼层
喜欢楼主发布的好音乐,慢慢下载欣赏
回复 支持 反对

使用道具 举报

发表于 2015-9-12 21:37:55 | 显示全部楼层
这个帖子真不错,感谢提供分享
回复 支持 反对

使用道具 举报

发表于 2015-9-13 22:27:56 | 显示全部楼层
好资源!我很需要呀,回帖支持
回复 支持 反对

使用道具 举报

发表于 2015-9-14 04:57:56 | 显示全部楼层
谢谢楼主提供好资源,下载欣赏了
回复 支持 反对

使用道具 举报

发表于 2015-9-14 22:17:52 | 显示全部楼层
喜欢楼主发布的好音乐,慢慢下载欣赏
回复 支持 反对

使用道具 举报

发表于 2015-9-16 06:37:54 | 显示全部楼层
支持楼主发贴!这个我喜欢哦。
回复 支持 反对

使用道具 举报

发表于 2015-9-19 03:53:05 | 显示全部楼层
谢谢楼主提供好资源,下载欣赏了
回复 支持 反对

使用道具 举报

发表于 2015-9-19 21:38:00 | 显示全部楼层
制作得很不错楼主辛苦你了
回复 支持 反对

使用道具 举报

您需要登录后才可以回帖 登录 | 注册会员

本版积分规则

Archiver|手机版|联系我们|风云音乐谷 ( 粤ICP备09098429号-2 )  

GMT+8, 2018-6-23 18:10 , Processed in 0.098217 second(s), 20 queries .

Powered by Discuz! X3.4

© 2001-2017 Comsenz Inc.

快速回复 返回顶部 返回列表