设为首页收藏本站

风云音乐谷

 找回密码
 注册会员

QQ登录

只需一步,快速开始

扫一扫,访问微社区


【揭露淘宝、微商卖U盘音乐、无损碟片15条惊天骗术】     【无损音乐下载、检测、使用、播放必备四步】

破解奥迪、途锐U盘播放wav、dts音乐方法 显示歌手和歌名的CD、DTS CD无损碟片制作教程 一键制作AC3 Audio DVD杜比音乐碟片
一键制作U盘(SD卡、TF卡)无损音乐教程 任何车型播放wav、flac、ape、dts无损音乐方法 一键制作DTS Audio DVD无损音乐碟片
一键批量抓取SACD光盘ISO镜像曲目的方法 一键制作世界最顶级的DVD Audio无损音乐碟片 一键制作WAV Audio DVD无损音乐碟片
U盘、碟片播放5.1环绕声dts音乐方法总结 一键制作U盘dts、wav、flac、ape视频音乐教程 一键制作DVD图片(视频)MV音乐碟片教程
查看: 7315|回复: 261

[群星] [APE/整軌]Various - 口袋音乐vol06[百度/ 原抓]

[复制链接]
发表于 2015-7-30 20:00:15 | 显示全部楼层 |阅读模式

这么精彩的内容,您还在等什么呢?马上注册风云音乐谷查看完整内容

您需要 登录 才可以下载或查看,没有帐号?注册会员

x

124921xubw0dlx0gpbub2m.jpg

REM DISCID C10F6D0F
REM COMMENT "ExactAudioCopy v0.99pb3"
PERFORMER "Various"
TITLE "口袋音乐vol6"
FILE "Various - 口袋音乐vol6.ape" WAVE
  TRACK 01 AUDIO
    TITLE "Divine Sweet Divide"
    PERFORMER "Tanya Donelly"
    FLAGS DCP
    INDEX 01 00:00:00
  TRACK 02 AUDIO
    TITLE "The Dream Spider of The Laughing Horse"
    PERFORMER "Scarlet's Well"
    FLAGS DCP
    INDEX 00 03:25:26
    INDEX 01 03:27:28
  TRACK 03 AUDIO
    TITLE "Sooner"
    PERFORMER "Asobi Seksu"
    FLAGS DCP
    INDEX 00 07:07:11
    INDEX 01 07:08:69
  TRACK 04 AUDIO
    TITLE "Burden Of Proof"
    PERFORMER "Dykehouse"
    FLAGS DCP
    INDEX 00 10:54:74
    INDEX 01 10:56:52
  TRACK 05 AUDIO
    TITLE "Open"
    PERFORMER "Rothko"
    FLAGS DCP
    INDEX 00 14:06:70
    INDEX 01 14:08:55
  TRACK 06 AUDIO
    TITLE "Dictaphones Lament"
    PERFORMER "Tycho"
    FLAGS DCP
    INDEX 00 18:53:74
    INDEX 01 18:55:54
  TRACK 07 AUDIO
    TITLE "Botas de Oro"
    PERFORMER "Terrestre"
    FLAGS DCP
    INDEX 01 24:05:20
  TRACK 08 AUDIO
    TITLE "Far From The City"
    PERFORMER "Cranes"
    FLAGS DCP
    INDEX 00 30:22:06
    INDEX 01 30:23:55
  TRACK 09 AUDIO
    TITLE "I Want To Be Alone"
    PERFORMER "Jackson C.Frank"
    FLAGS DCP
    INDEX 00 34:25:19
    INDEX 01 34:26:73
  TRACK 10 AUDIO
    TITLE "Ban Marriage"
    PERFORMER "The Hidden Cameras"
    FLAGS DCP
    INDEX 00 37:47:35
    INDEX 01 37:49:11
  TRACK 11 AUDIO
    TITLE "I Wonder Why My Favorite Boy Leaves Me In The Rain"
    PERFORMER "The Marshmallow Kisses"
    FLAGS DCP
    INDEX 00 42:09:55
    INDEX 01 42:11:28
  TRACK 12 AUDIO
    TITLE "We Don't Wanna Live Alone"
    PERFORMER "杜昆"
    FLAGS DCP
    INDEX 00 44:36:42
    INDEX 01 44:38:16
  TRACK 13 AUDIO
    TITLE "8"
    PERFORMER "美之瓜"
    FLAGS DCP
    INDEX 00 50:00:19
    INDEX 01 50:01:67
  TRACK 14 AUDIO
    TITLE "掐蒜薹"
    PERFORMER "杨一"
    FLAGS DCP
    INDEX 00 54:45:42
    INDEX 01 54:47:19
  TRACK 15 AUDIO
    TITLE "Remix 法国"
    PERFORMER "超级市场"
    FLAGS DCP
    INDEX 00 58:29:27
    INDEX 01 58:31:07

评分

参与人数 1威望积分 +500 风云金币 +2 收起 理由
爱的天堂 + 500 + 2 分享不易,加分支持

查看全部评分

回复

使用道具 举报

 楼主| 发表于 2015-7-30 20:02:42 | 显示全部楼层
音乐杂志《口袋音乐》赠送的非主流音乐,如果有爆音,噪音,啸叫等情况出现,并非碟子的问题,请自行鉴别。曲目参考下面已编辑的cue。

游客,如果您要查看本帖隐藏内容请回复
回复 支持 反对

使用道具 举报

 楼主| 发表于 2015-7-30 20:02:59 | 显示全部楼层
Exact Audio Copy V0.99 prebeta 3 from 28. July 2007

EAC 抓取日志文件从23. 八月 2009, 15:31

Various / 口袋音乐vol6

使用驱动器  :TSSTcorpCDDVDW TS-H653B   Adapter: 0  ID: 1

读取模式     : 保护
使用精确流   : 是
废除音频缓冲 : 否
使用 C2 指针 : 否

组合读/写偏移校正              : 0
读取 Lead-In 和 Lead-Out       : 否
用静音填充抓取中丢失偏移的采样 : 是
去除首尾静音块                 : 否
在 CRC 计算中使用了空样本      : 否
已用接口                       : Win NT 及 2000 本地 Win32 接口

所用输出格式 : 内部 WAV 函数
样本格式     : 44.100 Hz;16 Bit;立体声


被抓轨 CD 的 TOC

     音轨 |   开始   |   长度   | 起始扇区 | 结尾扇区
    --------------------------------------------------
       1  |  0:00.00 |  3:27.28 |       0  |   15552  
       2  |  3:27.28 |  3:41.41 |   15553  |   32168  
       3  |  7:08.69 |  3:47.58 |   32169  |   49251  
       4  | 10:56.52 |  3:12.03 |   49252  |   63654  
       5  | 14:08.55 |  4:46.74 |   63655  |   85178  
       6  | 18:55.54 |  5:09.41 |   85179  |  108394  
       7  | 24:05.20 |  6:18.35 |  108395  |  136779  
       8  | 30:23.55 |  4:03.18 |  136780  |  155022  
       9  | 34:26.73 |  3:22.13 |  155023  |  170185  
      10  | 37:49.11 |  4:22.17 |  170186  |  189852  
      11  | 42:11.28 |  2:26.63 |  189853  |  200865  
      12  | 44:38.16 |  5:23.51 |  200866  |  225141  
      13  | 50:01.67 |  4:45.27 |  225142  |  246543  
      14  | 54:47.19 |  3:43.63 |  246544  |  263331  
      15  | 58:31.07 |  7:18.36 |  263332  |  296217  


范围状态及错误

已选择范围

     文件名 G:\@__自抓\Various - 口袋音乐vol6.wav

     峰值电平 100.0 %
     范围质量 99.9 %
     复制 CRC 8E45827E
     复制成功

没有错误发生

状态报告结尾
回复 支持 反对

使用道具 举报

发表于 2015-8-11 09:17:31 | 显示全部楼层
支持楼主发贴!这个我喜欢哦。
回复 支持 反对

使用道具 举报

发表于 2015-8-11 11:37:56 | 显示全部楼层
支持楼主发贴!这个我喜欢哦。
回复 支持 反对

使用道具 举报

发表于 2015-8-17 13:07:49 | 显示全部楼层
谢谢楼主哦 下载欣赏了
回复 支持 反对

使用道具 举报

发表于 2015-8-22 11:43:07 | 显示全部楼层
谢谢楼主 好东西·····
回复 支持 反对

使用道具 举报

发表于 2015-8-31 01:47:30 | 显示全部楼层
这个帖子真不错,感谢提供分享
回复 支持 反对

使用道具 举报

发表于 2015-9-9 20:43:36 | 显示全部楼层
谢谢楼主提供好资源,下载欣赏了
回复 支持 反对

使用道具 举报

发表于 2015-9-13 11:38:00 | 显示全部楼层
支持楼主发贴!这个我喜欢哦。
回复 支持 反对

使用道具 举报

发表于 2015-9-16 15:17:50 | 显示全部楼层
谢谢楼主哦 下载欣赏了
回复 支持 反对

使用道具 举报

发表于 2015-9-17 10:08:00 | 显示全部楼层
喜欢楼主发布的好音乐,慢慢下载欣赏
回复 支持 反对

使用道具 举报

发表于 2015-9-18 04:28:04 | 显示全部楼层
听起来感觉不错。谢谢分享...
回复 支持 反对

使用道具 举报

发表于 2015-9-18 15:55:30 | 显示全部楼层
听起来感觉不错。谢谢分享...
回复 支持 反对

使用道具 举报

发表于 2015-9-19 03:55:59 | 显示全部楼层
喜欢楼主发布的好音乐,慢慢下载欣赏
回复 支持 反对

使用道具 举报

您需要登录后才可以回帖 登录 | 注册会员

本版积分规则

Archiver|手机版|联系我们|风云音乐谷 ( 粤ICP备09098429号-2 )  

GMT+8, 2018-8-15 20:29 , Processed in 0.115090 second(s), 22 queries .

Powered by Discuz! X3.4

© 2001-2017 Comsenz Inc.

快速回复 返回顶部 返回列表