设为首页收藏本站

风云音乐谷

 找回密码
 注册会员

QQ登录

只需一步,快速开始

扫一扫,访问微社区


【揭露淘宝、微商卖U盘音乐、无损碟片15条惊天骗术】     【无损音乐下载、检测、使用、播放必备四步】

破解奥迪、途锐U盘播放wav、dts音乐方法 显示歌手和歌名的CD、DTS CD无损碟片制作教程 一键制作AC3 Audio DVD杜比音乐碟片
一键制作U盘(SD卡、TF卡)无损音乐教程 任何车型播放wav、flac、ape、dts无损音乐方法 一键制作DTS Audio DVD无损音乐碟片
一键批量抓取SACD光盘ISO镜像曲目的方法 一键制作世界最顶级的DVD Audio无损音乐碟片 一键制作WAV Audio DVD无损音乐碟片
U盘、碟片播放5.1环绕声dts音乐方法总结 一键制作U盘dts、wav、flac、ape视频音乐教程 一键制作DVD图片(视频)MV音乐碟片教程
查看: 13109|回复: 360

[群星] [wav/整軌]音乐天堂特刊之世界上最动听的歌·迷音纪[百度雲/Tosea 原抓]

  [复制链接]
发表于 2015-8-3 17:47:32 | 显示全部楼层 |阅读模式

这么精彩的内容,您还在等什么呢?马上注册风云音乐谷查看完整内容

您需要 登录 才可以下载或查看,没有帐号?注册会员

x
IMG_0017.jpg IMG_0018.jpg


PERFORMER "Various"
TITLE "世界时最动听的歌·迷音纪"
FILE "CDImage.wav" WAVE
  TRACK 01 AUDIO
    TITLE "At Least We Tried"
    PERFORMER "Moby"
    INDEX 01 00:00:00
  TRACK 02 AUDIO
    TITLE "Dream About Me"
    PERFORMER "Moby"
    INDEX 00 04:08:62
    INDEX 01 04:10:62
  TRACK 03 AUDIO
    TITLE "Come On You Slags!"
    PERFORMER "Aphex Twin"
    INDEX 00 07:32:26
    INDEX 01 07:34:26
  TRACK 04 AUDIO
    TITLE "Block Rockin' Beats"
    PERFORMER "The Chemical Brothers"
    INDEX 00 13:19:10
    INDEX 01 13:21:10
  TRACK 05 AUDIO
    TITLE "Teardrop"
    PERFORMER "Massive Attack"
    INDEX 00 18:15:30
    INDEX 01 18:17:30
  TRACK 06 AUDIO
    TITLE "Praise You"
    PERFORMER "Fatboy Slim"
    INDEX 00 23:48:15
    INDEX 01 23:50:15
  TRACK 07 AUDIO
    TITLE "Woodcabin"
    PERFORMER "Saint Etienne"
    INDEX 00 29:13:30
    INDEX 01 29:15:30
  TRACK 08 AUDIO
    TITLE "Asleep From Day"
    PERFORMER "The Chemical Brothers"
    INDEX 00 33:22:72
    INDEX 01 33:24:72
  TRACK 09 AUDIO
    TITLE "World Looking In"
    PERFORMER "Morcheeba"
    INDEX 00 38:13:15
    INDEX 01 38:15:15
  TRACK 10 AUDIO
    TITLE "Hide U"
    PERFORMER "Kosheen"
    INDEX 00 42:22:29
    INDEX 01 42:24:29
  TRACK 11 AUDIO
    TITLE "Excess"
    PERFORMER "Tricky"
    INDEX 00 46:36:46
    INDEX 01 46:38:46
  TRACK 12 AUDIO
    TITLE "Crystal"
    PERFORMER "New Order"
    INDEX 00 51:22:58
    INDEX 01 51:24:58


评分

参与人数 1威望积分 +500 风云金币 +2 收起 理由
爱的天堂 + 500 + 2 分享不易,加分支持

查看全部评分

回复

使用道具 举报

 楼主| 发表于 2015-8-3 17:48:17 | 显示全部楼层

本帖最后由 tosea 于 2015-8-2 11:52 编辑


cd1是整轨  cd2是分轨

而且打字还打错了,打成了 世界时最动听的歌,请大家自行改正吧。


游客,如果您要查看本帖隐藏内容请回复
回复 支持 反对

使用道具 举报

发表于 2015-8-5 20:01:26 | 显示全部楼层
好艺术水平好东西就要顶
回复 支持 反对

使用道具 举报

发表于 2015-8-5 20:52:30 | 显示全部楼层
谢谢分享
回复 支持 反对

使用道具 举报

发表于 2015-8-5 21:52:21 | 显示全部楼层
cd2张也是极好的
回复 支持 反对

使用道具 举报

发表于 2015-8-6 08:07:15 | 显示全部楼层
好象挺新的东西,顶起来
回复 支持 反对

使用道具 举报

发表于 2015-8-8 21:25:44 | 显示全部楼层
感谢楼主 感谢楼主
回复 支持 反对

使用道具 举报

发表于 2015-8-9 00:13:52 | 显示全部楼层
难得有新资源啵,多谢分享。
回复 支持 反对

使用道具 举报

发表于 2015-8-9 19:57:46 | 显示全部楼层
呵呵!老大太紧张了。
回复 支持 反对

使用道具 举报

发表于 2015-8-10 17:47:24 | 显示全部楼层
感谢分享!顶一下
回复 支持 反对

使用道具 举报

发表于 2015-8-11 11:12:04 | 显示全部楼层
下来听听,感谢分享。
回复 支持 反对

使用道具 举报

发表于 2015-8-11 13:28:34 | 显示全部楼层
能试听多好,谢谢分享
回复 支持 反对

使用道具 举报

发表于 2015-8-12 12:06:42 来自手机 | 显示全部楼层
手机就是试听不了,谢谢分享
回复 支持 反对

使用道具 举报

发表于 2015-8-12 18:39:55 | 显示全部楼层

感谢楼主
回复 支持 反对

使用道具 举报

发表于 2015-8-13 13:41:56 | 显示全部楼层
感受一下世界上最动听的歌,谢谢!
回复 支持 反对

使用道具 举报

您需要登录后才可以回帖 登录 | 注册会员

本版积分规则

Archiver|手机版|联系我们|风云音乐谷 ( 粤ICP备09098429号-2 )  

GMT+8, 2018-8-18 10:33 , Processed in 0.100334 second(s), 20 queries .

Powered by Discuz! X3.4

© 2001-2017 Comsenz Inc.

快速回复 返回顶部 返回列表