设为首页收藏本站

风云音乐谷

 找回密码
 注册会员

QQ登录

只需一步,快速开始

扫一扫,访问微社区


【揭露淘宝、微商卖U盘音乐、无损碟片15条惊天骗术】     【无损音乐下载、检测、使用、播放必备四步】

破解奥迪、途锐U盘播放wav、dts音乐方法 显示歌手和歌名的CD、DTS CD无损碟片制作教程 一键制作AC3 Audio DVD杜比音乐碟片
一键制作U盘(SD卡、TF卡)无损音乐教程 任何车型播放wav、flac、ape、dts无损音乐方法 一键制作DTS Audio DVD无损音乐碟片
一键批量抓取SACD光盘ISO镜像曲目的方法 一键制作世界最顶级的DVD Audio无损音乐碟片 一键制作WAV Audio DVD无损音乐碟片
U盘、碟片播放5.1环绕声dts音乐方法总结 一键制作U盘dts、wav、flac、ape视频音乐教程 一键制作DVD图片(视频)MV音乐碟片教程
查看: 9867|回复: 309

[群星] [APE/整軌]Various - 音乐天堂vol63[百度雲/Tosea 原抓]

[复制链接]
发表于 2015-8-3 17:55:14 | 显示全部楼层 |阅读模式

这么精彩的内容,您还在等什么呢?马上注册风云音乐谷查看完整内容

您需要 登录 才可以下载或查看,没有帐号?注册会员

x
IMG_0050.jpg


专辑英文名: Music Heaven Vol.63
专辑中文名: 音乐天堂 Vol.63
歌手: Various Artists
发行时间: 2004年
地区: **
语言: 英语
简介:


在大学时每期必买的的音乐杂志,虽然39期改版之后变得有些恶俗,但是却已经成了习惯。

2004年是Beatles征服美国40周年,所以这期介绍了很多Beatles的内容。还介绍了R. Kelly,Bryan Adams,Tim McGraw,The Music等。

专辑曲目:
01. Bryan Adams - Flying
02. Hilary Duff - Who's That Girl (Acoustic Mix)
03. Tim Mcgraw - Live Like You Were Dying
04. Kelly Clarkson - A Moment Like This (New Mix)
05. Natasha Thomas - It's Over Now
06. The Music - Fight The Feeling
07. Natasha Bedingfield - Single
08. The Beatles - And I Love Her
09. Jill Scott - Bedda At Home
10. Dillard & Clark - Don't Let Me Down
11. Beverley Craven - Promise Me
12. R. Kelly - Leap Of Faith
13. Livera - Stay With Me
14. Cliff Richard - Ocean Deep

评分

参与人数 1威望积分 +500 风云金币 +2 收起 理由
爱的天堂 + 500 + 2 分享不易,加分支持

查看全部评分

回复

使用道具 举报

 楼主| 发表于 2015-8-3 17:55:48 | 显示全部楼层

本帖最后由 tosea 于 2015-8-2 11:57 编辑


cue已编辑,如有错误,请多多指正

游客,如果您要查看本帖隐藏内容请回复
回复 支持 反对

使用道具 举报

 楼主| 发表于 2015-8-3 17:56:13 | 显示全部楼层
Exact Audio Copy V0.99 prebeta 3 from 28. July 2007

EAC 抓取日志文件从22. 八月 2009, 23:22

Various / music heaven 63

使用驱动器  :TSSTcorpCDDVDW TS-H653B   Adapter: 0  ID: 1

读取模式     : 保护
使用精确流   : 是
废除音频缓冲 : 否
使用 C2 指针 : 否

组合读/写偏移校正              : 0
读取 Lead-In 和 Lead-Out       : 否
用静音填充抓取中丢失偏移的采样 : 是
去除首尾静音块                 : 否
在 CRC 计算中使用了空样本      : 否
已用接口                       : Win NT 及 2000 本地 Win32 接口

所用输出格式 : 内部 WAV 函数
样本格式     : 44.100 Hz;16 Bit;立体声


被抓轨 CD 的 TOC

     音轨 |   开始   |   长度   | 起始扇区 | 结尾扇区
    --------------------------------------------------
       1  |  0:00.00 |  4:06.10 |       0  |   18459  
       2  |  4:06.10 |  3:26.25 |   18460  |   33934  
       3  |  7:32.35 |  5:00.67 |   33935  |   56501  
       4  | 12:33.27 |  3:51.22 |   56502  |   73848  
       5  | 16:24.49 |  3:39.30 |   73849  |   90303  
       6  | 20:04.04 |  4:14.35 |   90304  |  109388  
       7  | 24:18.39 |  3:59.45 |  109389  |  127358  
       8  | 28:18.09 |  2:31.14 |  127359  |  138697  
       9  | 30:49.23 |  4:05.67 |  138698  |  157139  
      10  | 34:55.15 |  3:53.00 |  157140  |  174614  
      11  | 38:48.15 |  3:42.73 |  174615  |  191337  
      12  | 42:31.13 |  4:53.65 |  191338  |  213377  
      13  | 47:25.03 |  3:35.42 |  213378  |  229544  
      14  | 51:00.45 |  5:20.01 |  229545  |  253545  


范围状态及错误

已选择范围

     文件名 G:\@__自抓\Various - music heaven 63.wav

     峰值电平 79.4 %
     范围质量 99.9 %
     复制 CRC 5460652C
     复制成功

没有错误发生

状态报告结尾
回复 支持 反对

使用道具 举报

发表于 2015-8-5 19:58:45 | 显示全部楼层
好艺术水平好东西就要顶
回复 支持 反对

使用道具 举报

发表于 2015-8-6 08:59:49 | 显示全部楼层
没想到  现在还能听到这东西!!!太好了!!!
回复 支持 反对

使用道具 举报

发表于 2015-8-9 10:48:11 | 显示全部楼层
好不好听取决于自己的欣赏习惯。
回复 支持 反对

使用道具 举报

发表于 2015-8-14 09:31:20 | 显示全部楼层
没听说过这个歌手,听听怎样啊。
回复 支持 反对

使用道具 举报

发表于 2015-8-22 11:04:01 | 显示全部楼层
好东西 谢谢楼主 ····
回复 支持 反对

使用道具 举报

发表于 2015-8-26 15:26:02 | 显示全部楼层
好资源!我很需要呀,回帖支持
回复 支持 反对

使用道具 举报

发表于 2015-9-12 09:27:45 | 显示全部楼层
支持楼主发贴!这个我喜欢哦。
回复 支持 反对

使用道具 举报

发表于 2015-9-13 02:17:52 | 显示全部楼层
谢谢楼主啊!收藏了,好资源
回复 支持 反对

使用道具 举报

发表于 2015-9-13 13:37:23 | 显示全部楼层
谢谢楼主哦 下载欣赏了
回复 支持 反对

使用道具 举报

发表于 2015-9-14 08:47:31 | 显示全部楼层
听起来感觉不错。谢谢分享...
回复 支持 反对

使用道具 举报

发表于 2015-9-15 11:09:17 | 显示全部楼层
好资源!我很需要呀,回帖支持
回复 支持 反对

使用道具 举报

发表于 2015-9-15 21:44:05 | 显示全部楼层
这些人都是很出名的啊,谢谢分享
回复 支持 反对

使用道具 举报

您需要登录后才可以回帖 登录 | 注册会员

本版积分规则

Archiver|手机版|联系我们|风云音乐谷 ( 粤ICP备09098429号-2 )  

GMT+8, 2018-8-18 10:32 , Processed in 0.083757 second(s), 20 queries .

Powered by Discuz! X3.4

© 2001-2017 Comsenz Inc.

快速回复 返回顶部 返回列表