设为首页收藏本站

风云音乐谷

 找回密码
 注册会员

QQ登录

只需一步,快速开始

扫一扫,访问微社区


【揭露淘宝、微商卖U盘音乐、无损碟片15条惊天骗术】     【无损音乐下载、检测、使用、播放必备四步】

破解奥迪、途锐U盘播放wav、dts音乐方法 显示歌手和歌名的CD、DTS CD无损碟片制作教程 一键制作AC3 Audio DVD杜比音乐碟片
一键制作U盘(SD卡、TF卡)无损音乐教程 任何车型播放wav、flac、ape、dts无损音乐方法 一键制作DTS Audio DVD无损音乐碟片
一键批量抓取SACD光盘ISO镜像曲目的方法 一键制作世界最顶级的DVD Audio无损音乐碟片 一键制作WAV Audio DVD无损音乐碟片
U盘、碟片播放5.1环绕声dts音乐方法总结 一键制作U盘dts、wav、flac、ape视频音乐教程 一键制作DVD图片(视频)MV音乐碟片教程
查看: 10059|回复: 274

[群星] [APE/整軌]Various - 音乐天堂vol68[百度雲/Tosea 原抓]

[复制链接]
发表于 2015-8-3 18:04:01 | 显示全部楼层 |阅读模式

这么精彩的内容,您还在等什么呢?马上注册风云音乐谷查看完整内容

您需要 登录 才可以下载或查看,没有帐号?注册会员

x

IMG_0081.jpg IMG_0082.jpg IMG_0083.jpg



专辑英文名: Music Heaven Vol.68
专辑中文名: 音乐天堂 Vol.68
歌手: Various Artists
发行时间: 2005年
地区: **
语言: 英语
简介:

在拥抱音乐,触摸灵魂的改版方针下,我们推出的68期音乐天堂为反战专号,该书特地收录了六首欧美最著名的反战、和平歌曲。并配以大篇幅文字,为制作了和平专题。该期还介绍了相当分量的流行音乐以及上榜歌曲,同时大篇幅的碟评为读者们起到购买唱片指南的作用。收录歌曲有:英伦新星James Blunt、有华人血统的少女KT Tunstall、挪威电子组合Royksopp。

专辑曲目:


01. cheb khaled : imagine(Featuring Noa)
02. u2 : one
03. scorpions : wind of change
04. roger waters : konckin'on heaven's door
05. sarah brightman : free
06. john lennon : give peace a chance
07. kt tunstall : other side of the world
08. wild : fiesta
09. the funky lowlives : sail into the sun
10. royksopp : only this moment
11. dream theater : the answer lies within
12. saint etienne : milk bottle symphony
13. barry manilow : could it be magic
14. james blunt : you're beautiful

评分

参与人数 1威望积分 +500 风云金币 +2 收起 理由
爱的天堂 + 500 + 2 分享不易,加分支持

查看全部评分

回复

使用道具 举报

 楼主| 发表于 2015-8-3 18:04:49 | 显示全部楼层
cue已编辑,如有错误,请多多指正

游客,如果您要查看本帖隐藏内容请回复
回复 支持 反对

使用道具 举报

 楼主| 发表于 2015-8-3 18:12:46 | 显示全部楼层
Exact Audio Copy V0.99 prebeta 3 from 28. July 2007

EAC 抓取日志文件从23. 八月 2009, 17:04

Various / 音乐天堂vol68

使用驱动器  :TSSTcorpCDDVDW TS-H653B   Adapter: 0  ID: 1

读取模式     : 保护
使用精确流   : 是
废除音频缓冲 : 否
使用 C2 指针 : 否

组合读/写偏移校正              : 0
读取 Lead-In 和 Lead-Out       : 否
用静音填充抓取中丢失偏移的采样 : 是
去除首尾静音块                 : 否
在 CRC 计算中使用了空样本      : 否
已用接口                       : Win NT 及 2000 本地 Win32 接口

所用输出格式 : 内部 WAV 函数
样本格式     : 44.100 Hz;16 Bit;立体声


被抓轨 CD 的 TOC

     音轨 |   开始   |   长度   | 起始扇区 | 结尾扇区
    --------------------------------------------------
       1  |  0:00.00 |  4:08.55 |       0  |   18654  
       2  |  4:08.55 |  4:38.12 |   18655  |   39516  
       3  |  8:46.67 |  5:13.20 |   39517  |   63011  
       4  | 14:00.12 |  4:08.52 |   63012  |   81663  
       5  | 18:08.64 |  3:47.02 |   81664  |   98690  
       6  | 21:55.66 |  6:13.27 |   98691  |  126692  
       7  | 28:09.18 |  3:36.44 |  126693  |  142936  
       8  | 31:45.62 |  3:09.52 |  142937  |  157163  
       9  | 34:55.39 |  5:06.04 |  157164  |  180117  
      10  | 40:01.43 |  3:57.53 |  180118  |  197945  
      11  | 43:59.21 |  5:35.10 |  197946  |  223080  
      12  | 49:34.31 |  4:05.44 |  223081  |  241499  
      13  | 53:40.00 |  4:20.56 |  241500  |  261055  
      14  | 58:00.56 |  3:33.02 |  261056  |  277032  


范围状态及错误

已选择范围

     文件名 G:\@__自抓\Various - 音乐天堂vol68.wav

     峰值电平 100.0 %
     范围质量 100.0 %
     复制 CRC 52EE75D9
     复制成功

没有错误发生

状态报告结尾
回复 支持 反对

使用道具 举报

发表于 2015-8-5 19:55:36 | 显示全部楼层
好艺术水平好东西就要顶
回复 支持 反对

使用道具 举报

发表于 2015-8-6 09:02:10 | 显示全部楼层
没想到  现在还能听到这东西!!!太好了!!!
回复 支持 反对

使用道具 举报

发表于 2015-8-9 10:34:56 | 显示全部楼层
本专辑以反战、和平歌曲为主。
回复 支持 反对

使用道具 举报

发表于 2015-8-14 08:00:38 | 显示全部楼层
就知道其中的一首,不好意思啊。
回复 支持 反对

使用道具 举报

发表于 2015-8-17 12:24:46 | 显示全部楼层
好资源下载了,楼主辛苦,谢谢
回复 支持 反对

使用道具 举报

发表于 2015-8-22 11:02:43 | 显示全部楼层
为音乐而来 谢谢楼主
回复 支持 反对

使用道具 举报

发表于 2015-8-28 22:58:02 | 显示全部楼层
好资源!我很需要呀,回帖支持
回复 支持 反对

使用道具 举报

发表于 2015-8-30 14:58:00 | 显示全部楼层
这个帖子真不错,感谢提供分享
回复 支持 反对

使用道具 举报

发表于 2015-9-10 06:17:59 | 显示全部楼层
十分感谢楼主的辛苦制作分享
回复 支持 反对

使用道具 举报

发表于 2015-9-10 21:07:31 | 显示全部楼层
十分感谢楼主的辛苦制作分享
回复 支持 反对

使用道具 举报

发表于 2015-9-15 21:40:08 | 显示全部楼层
音乐天堂很错,谢谢分享
回复 支持 反对

使用道具 举报

发表于 2015-9-16 07:08:00 | 显示全部楼层
在此对楼主说声谢谢呀,我要下载这个了
回复 支持 反对

使用道具 举报

您需要登录后才可以回帖 登录 | 注册会员

本版积分规则

Archiver|手机版|联系我们|风云音乐谷 ( 粤ICP备09098429号-2 )  

GMT+8, 2018-8-18 10:32 , Processed in 0.100362 second(s), 20 queries .

Powered by Discuz! X3.4

© 2001-2017 Comsenz Inc.

快速回复 返回顶部 返回列表