设为首页收藏本站

风云音乐谷

 找回密码
 注册会员

QQ登录

只需一步,快速开始

扫一扫,访问微社区


【揭露淘宝、微商卖U盘音乐、无损碟片15条惊天骗术】     【无损音乐下载、检测、使用、播放必备四步】

破解奥迪、途锐U盘播放wav、dts音乐方法 显示歌手和歌名的CD、DTS CD无损碟片制作教程 一键制作AC3 Audio DVD杜比音乐碟片
一键制作U盘(SD卡、TF卡)无损音乐教程 任何车型播放wav、flac、ape、dts无损音乐方法 一键制作DTS Audio DVD无损音乐碟片
一键批量抓取SACD光盘ISO镜像曲目的方法 一键制作世界最顶级的DVD Audio无损音乐碟片 一键制作WAV Audio DVD无损音乐碟片
U盘、碟片播放5.1环绕声dts音乐方法总结 一键制作U盘dts、wav、flac、ape视频音乐教程 一键制作DVD图片(视频)MV音乐碟片教程
查看: 10394|回复: 269

[群星] [APE/整軌]Various - 音乐天堂vol69[百度雲/Tosea 原抓]

  [复制链接]
发表于 2015-8-3 18:06:00 | 显示全部楼层 |阅读模式

这么精彩的内容,您还在等什么呢?马上注册风云音乐谷查看完整内容

您需要 登录 才可以下载或查看,没有帐号?注册会员

x

IMG_0054.jpg IMG_0055.jpg IMG_0056.jpg


专辑英文名: Music Heaven Vol.69
专辑中文名: 音乐天堂 Vol.69
歌手: Various Artists
发行时间: 2006年
地区: **
语言: 英语
简介:

本期以大篇幅的“清新民谣和梦幻流行专题”,介绍了几大清新音乐厂牌,选歌则相应精挑了多首市面上万金难求的欧洲清新乐队歌曲,令人耳目一新。
特约访谈艺人——中国民谣摇滚诗人、魔岩三杰之一的“张楚”,以及介绍他生命中的十大唱片。
前音乐天堂主编、知名中国“打口一代”营养师邱大立坐阵推荐精粹唱片。
强力推荐英国本年度水星音乐奖得主Antony and the Johnsons;新进歌手Daniel Powter,以及Dido**人,来自英国威尔士的新天后Jem。

专辑曲目:


01. hector zazou : surrender(With Nicola Hitchcock)
02. antony and the johnsons : hope there's someone
03. apenino : lejos de ti
04. craig david : don't love you no more(I'm Sorry)
05. northern picture library : love song for the dead che#
06. daniel powter : bad day
07. portonovo : las piscinas en febrero
08. patrizio buanne : ll mondo(my world)
09. sambassadeur : between the lines
10. jem : they
11. supergrass : st.petersburg
12. swell : oh my my
13. trembling blue stars : sorrow has a way
14. annie hayden : starring in the movies

评分

参与人数 1威望积分 +500 风云金币 +2 收起 理由
爱的天堂 + 500 + 2 分享不易,加分支持

查看全部评分

回复

使用道具 举报

 楼主| 发表于 2015-8-3 18:06:37 | 显示全部楼层
本帖最后由 intowhite 于 2015-8-3 18:11 编辑




cue已编辑,如有错误,请多多指正

游客,如果您要查看本帖隐藏内容请回复
回复 支持 反对

使用道具 举报

 楼主| 发表于 2015-8-3 18:11:55 | 显示全部楼层
Exact Audio Copy V0.99 prebeta 3 from 28. July 2007

EAC 抓取日志文件从23. 八月 2009, 17:54

Various / 音乐天堂vol69

使用驱动器  :TSSTcorpCDDVDW TS-H653B   Adapter: 0  ID: 1

读取模式     : 保护
使用精确流   : 是
废除音频缓冲 : 否
使用 C2 指针 : 否

组合读/写偏移校正              : 0
读取 Lead-In 和 Lead-Out       : 否
用静音填充抓取中丢失偏移的采样 : 是
去除首尾静音块                 : 否
在 CRC 计算中使用了空样本      : 否
已用接口                       : Win NT 及 2000 本地 Win32 接口

所用输出格式 : 内部 WAV 函数
样本格式     : 44.100 Hz;16 Bit;立体声


被抓轨 CD 的 TOC

     音轨 |   开始   |   长度   | 起始扇区 | 结尾扇区
    --------------------------------------------------
       1  |  0:00.00 |  4:26.02 |       0  |   19951  
       2  |  4:26.02 |  4:23.15 |   19952  |   39691  
       3  |  8:49.17 |  3:24.18 |   39692  |   55009  
       4  | 12:13.35 |  4:05.72 |   55010  |   73456  
       5  | 16:19.32 |  3:46.19 |   73457  |   90425  
       6  | 20:05.51 |  3:56.33 |   90426  |  108158  
       7  | 24:02.09 |  3:15.20 |  108159  |  122803  
       8  | 27:17.29 |  3:10.06 |  122804  |  137059  
       9  | 30:27.35 |  2:42.05 |  137060  |  149214  
      10  | 33:09.40 |  3:18.22 |  149215  |  164086  
      11  | 36:27.62 |  3:11.41 |  164087  |  178452  
      12  | 39:39.28 |  5:34.08 |  178453  |  203510  
      13  | 45:13.36 |  6:27.04 |  203511  |  232539  
      14  | 51:40.40 |  3:02.45 |  232540  |  246234  


范围状态及错误

已选择范围

     文件名 G:\@__自抓\Various - 音乐天堂vol69.wav

     峰值电平 100.0 %
     范围质量 99.9 %
     复制 CRC 8CB792AC
     复制成功

没有错误发生

状态报告结尾
回复 支持 反对

使用道具 举报

发表于 2015-8-3 19:28:38 | 显示全部楼层
谢谢楼主分享 收藏了
回复 支持 反对

使用道具 举报

发表于 2015-8-5 19:52:34 | 显示全部楼层
好东西就要顶绝顶
回复 支持 反对

使用道具 举报

发表于 2015-8-6 09:03:26 | 显示全部楼层
没想到  现在还能听到这东西!!!太好了!!!
回复 支持 反对

使用道具 举报

发表于 2015-8-9 10:31:55 | 显示全部楼层
本期选曲以清新民谣和梦幻流行专题为主。
回复 支持 反对

使用道具 举报

发表于 2015-8-10 23:27:38 | 显示全部楼层
谢谢楼主哦 下载欣赏了
回复 支持 反对

使用道具 举报

发表于 2015-8-12 05:57:57 | 显示全部楼层
制作得很不错楼主辛苦你了
回复 支持 反对

使用道具 举报

发表于 2015-8-14 07:48:25 | 显示全部楼层
非常喜欢清新的民谣啊,实在太谢谢了啊。
回复 支持 反对

使用道具 举报

发表于 2015-8-22 11:08:24 | 显示全部楼层
谢谢楼主楼主辛苦
回复 支持 反对

使用道具 举报

发表于 2015-8-27 01:07:13 | 显示全部楼层
谢谢楼主提供好资源,下载欣赏了
回复 支持 反对

使用道具 举报

发表于 2015-9-1 00:27:41 | 显示全部楼层
好资源!我很需要呀,回帖支持
回复 支持 反对

使用道具 举报

发表于 2015-9-10 02:28:29 | 显示全部楼层
制作得很不错楼主辛苦你了
回复 支持 反对

使用道具 举报

发表于 2015-9-12 08:17:44 | 显示全部楼层
制作得很不错楼主辛苦你了
回复 支持 反对

使用道具 举报

您需要登录后才可以回帖 登录 | 注册会员

本版积分规则

Archiver|手机版|联系我们|风云音乐谷 ( 粤ICP备09098429号-2 )  

GMT+8, 2018-8-18 10:33 , Processed in 0.102918 second(s), 20 queries .

Powered by Discuz! X3.4

© 2001-2017 Comsenz Inc.

快速回复 返回顶部 返回列表