设为首页收藏本站

风云音乐谷

 找回密码
 注册会员

QQ登录

只需一步,快速开始

扫一扫,访问微社区


【揭露淘宝、微商卖U盘音乐、无损碟片15条惊天骗术】     【无损音乐下载、检测、使用、播放必备四步】

破解奥迪、途锐U盘播放wav、dts音乐方法 显示歌手和歌名的CD、DTS CD无损碟片制作教程 一键制作AC3 Audio DVD杜比音乐碟片
一键制作U盘(SD卡、TF卡)无损音乐教程 任何车型播放wav、flac、ape、dts无损音乐方法 一键制作DTS Audio DVD无损音乐碟片
一键批量抓取SACD光盘ISO镜像曲目的方法 一键制作世界最顶级的DVD Audio无损音乐碟片 一键制作WAV Audio DVD无损音乐碟片
U盘、碟片播放5.1环绕声dts音乐方法总结 一键制作U盘dts、wav、flac、ape视频音乐教程 一键制作DVD图片(视频)MV音乐碟片教程
查看: 10189|回复: 303

[群星] [APE/整軌]Various - 音乐天堂vol71[百度雲/Tosea 原抓]

  [复制链接]
发表于 2015-8-3 18:09:42 | 显示全部楼层 |阅读模式

这么精彩的内容,您还在等什么呢?马上注册风云音乐谷查看完整内容

您需要 登录 才可以下载或查看,没有帐号?注册会员

x

IMG_0064.jpg IMG_0065.jpg IMG_0066.jpg


专辑英文名: Music Heaven Vol.71
专辑中文名: 音乐天堂 Vol.71
歌手: Various Artists
资源格式: APE
发行时间: 2006年
地区: **
语言: 英语
简介:

本期是认真企业出版的《音乐天堂》的终结版,极具收藏价值!

《音乐天堂》在本期破天荒的在国内率先系统地介绍了阿拉伯流行音乐,主打选歌是将近一半的阿拉伯流行歌曲。
☆ 音乐纵横 栏目也以大篇幅专题文章“曼妙国度之音:阿拉伯流行乐浅观”,重点介绍了阿拉伯流行音乐在诸如阿尔及利亚、黎巴嫩、埃及、土耳其、伊朗、伊拉克的发展和现状。
让国人可以从文字尤其是音乐上认识到另一个阿拉伯国度,一个大家所不熟悉的精彩缤纷的音乐国度。
☆ 音乐人生 重点推荐阿尔及利亚籁乐天王Cheb Khaled;并专访了国际闻名的香港实验音乐家李劲松,以及他别出一格的介绍了自己生命中的十二大唱片。
☆ 淳美乡谣 介绍另类乡村民谣新贵Wilco乐队,以及英国忧郁抒情诗人歌手David Gray。
☆ 唯美另类 介绍来自冰岛的低调另类迷幻乐队Sigur Rós;还有黎巴嫩的综合艺术家Ziad Rahbani。
☆ 天籁之声 介绍当今闻名于阿拉伯世界的黎巴嫩宝石级歌手Elissa;以及黎巴嫩青年偶像Yuri Mrakadi。
☆ 怀旧年代 介绍了美国传奇性经典乐队Pink Martini。
☆ 星光驿站 推荐了有“美国的Radiohead乐队”之称的新晋乐队My Morning Jacket。

专辑曲目:
01. cheb khaled : mani hani
02. elissa : ajmal ihssas
03. cheb mami : le rai c'est chic
04. yuri mrakadi : taali nahjour el arda
05. murad wajdi : wen arouh?
06. saima&ziad rahbani : walla't kteer
07. re-evolution : aizare
08. yann tiersen : la valse d'amelie
09. pink martini : children of piraeus
10. david gray : alibi
11. my morning jacket : kont comes loose
12. sigur ros : hoppipolla
13. wilco : kamera
14. u2 : vertigo

评分

参与人数 1威望积分 +500 风云金币 +2 收起 理由
爱的天堂 + 500 + 2 分享不易,加分支持

查看全部评分

回复

使用道具 举报

 楼主| 发表于 2015-8-3 18:10:18 | 显示全部楼层
cue已编辑,如有错误,请多多指正

游客,如果您要查看本帖隐藏内容请回复
回复 支持 反对

使用道具 举报

 楼主| 发表于 2015-8-3 18:10:32 | 显示全部楼层
Exact Audio Copy V0.99 prebeta 3 from 28. July 2007

EAC 抓取日志文件从23. 八月 2009, 0:00

Various / music heaven 71

使用驱动器  :TSSTcorpCDDVDW TS-H653B   Adapter: 0  ID: 1

读取模式     : 保护
使用精确流   : 是
废除音频缓冲 : 否
使用 C2 指针 : 否

组合读/写偏移校正              : 0
读取 Lead-In 和 Lead-Out       : 否
用静音填充抓取中丢失偏移的采样 : 是
去除首尾静音块                 : 否
在 CRC 计算中使用了空样本      : 否
已用接口                       : Win NT 及 2000 本地 Win32 接口

所用输出格式 : 内部 WAV 函数
样本格式     : 44.100 Hz;16 Bit;立体声


被抓轨 CD 的 TOC

     音轨 |   开始   |   长度   | 起始扇区 | 结尾扇区
    --------------------------------------------------
       1  |  0:00.00 |  3:59.50 |       0  |   17974  
       2  |  3:59.50 |  5:50.59 |   17975  |   44283  
       3  |  9:50.34 |  3:48.72 |   44284  |   61455  
       4  | 13:39.31 |  5:28.72 |   61456  |   86127  
       5  | 19:08.28 |  4:36.30 |   86128  |  106857  
       6  | 23:44.58 |  7:25.16 |  106858  |  140248  
       7  | 31:09.74 |  3:22.52 |  140249  |  155450  
       8  | 34:32.51 |  2:40.50 |  155451  |  167500  
       9  | 37:13.26 |  5:00.46 |  167501  |  190046  
      10  | 42:13.72 |  4:36.19 |  190047  |  210765  
      11  | 46:50.16 |  4:04.50 |  210766  |  229115  
      12  | 50:54.66 |  4:30.53 |  229116  |  249418  
      13  | 55:25.44 |  3:32.11 |  249419  |  265329  
      14  | 58:57.55 |  3:14.39 |  265330  |  279918  


范围状态及错误

已选择范围

     文件名 G:\@__自抓\Various - music heaven 71.wav

     峰值电平 100.0 %
     范围质量 100.0 %
     复制 CRC E1B5C318
     复制成功

没有错误发生

状态报告结尾
回复 支持 反对

使用道具 举报

发表于 2015-8-3 19:19:24 | 显示全部楼层
谢谢楼主分享收藏了
回复 支持 反对

使用道具 举报

发表于 2015-8-4 10:26:24 | 显示全部楼层
阿拉伯音乐,真没听过。
回复 支持 反对

使用道具 举报

发表于 2015-8-5 19:50:40 | 显示全部楼层
好东西就要顶绝顶
回复 支持 反对

使用道具 举报

发表于 2015-8-6 09:04:15 | 显示全部楼层
没想到  现在还能听到这东西!!!太好了!!!
回复 支持 反对

使用道具 举报

发表于 2015-8-9 10:26:15 | 显示全部楼层
阿拉伯流行音乐是一种什么样的风格呢?且等下载后去了解。
回复 支持 反对

使用道具 举报

发表于 2015-8-14 07:15:21 | 显示全部楼层
很新鲜啊,谢谢了。
回复 支持 反对

使用道具 举报

发表于 2015-8-15 20:38:28 | 显示全部楼层
国内很少见,有下载价值,下了再做筛选e
回复 支持 反对

使用道具 举报

发表于 2015-8-19 14:36:55 | 显示全部楼层
十分感谢楼主的辛苦制作分享
回复 支持 反对

使用道具 举报

发表于 2015-8-22 10:49:19 | 显示全部楼层
瞬间美啊 好东西 谢谢楼主
回复 支持 反对

使用道具 举报

发表于 2015-8-24 08:56:15 | 显示全部楼层
好资源!我很需要呀,回帖支持
回复 支持 反对

使用道具 举报

发表于 2015-9-10 08:27:42 | 显示全部楼层
听起来感觉不错。谢谢分享...
回复 支持 反对

使用道具 举报

发表于 2015-9-14 15:17:44 | 显示全部楼层
好资源!我很需要呀,回帖支持
回复 支持 反对

使用道具 举报

您需要登录后才可以回帖 登录 | 注册会员

本版积分规则

Archiver|手机版|联系我们|风云音乐谷 ( 粤ICP备09098429号-2 )  

GMT+8, 2018-8-18 10:32 , Processed in 0.088499 second(s), 20 queries .

Powered by Discuz! X3.4

© 2001-2017 Comsenz Inc.

快速回复 返回顶部 返回列表