设为首页收藏本站

风云音乐谷

 找回密码
 注册会员

QQ登录

只需一步,快速开始

扫一扫,访问微社区


【揭露淘宝、微商卖U盘音乐、无损碟片15条惊天骗术】     【无损音乐下载、检测、使用、播放必备四步】

破解奥迪、途锐U盘播放wav、dts音乐方法 显示歌手和歌名的CD、DTS CD无损碟片制作教程 一键制作AC3 Audio DVD杜比音乐碟片
一键制作U盘(SD卡、TF卡)无损音乐教程 任何车型播放wav、flac、ape、dts无损音乐方法 一键制作DTS Audio DVD无损音乐碟片
一键批量抓取SACD光盘ISO镜像曲目的方法 一键制作世界最顶级的DVD Audio无损音乐碟片 一键制作WAV Audio DVD无损音乐碟片
U盘、碟片播放5.1环绕声dts音乐方法总结 一键制作U盘dts、wav、flac、ape视频音乐教程 一键制作DVD图片(视频)MV音乐碟片教程
查看: 2894|回复: 39

[粤剧辑] 【84670614原抓·WAV】文覺非【粵劇精英(經典唱腔名曲精選2-4)】專輯【百度網盤】

  [复制链接]
发表于 2015-10-29 21:29:15 | 显示全部楼层 |阅读模式

这么精彩的内容,您还在等什么呢?马上注册风云音乐谷查看完整内容

您需要 登录 才可以下载或查看,没有帐号?注册会员

x
【84670614原抓·WAV】文覺非【粵劇精英(經典唱腔名曲精選2-4)】專輯【百度網盤】

資源名稱:粵劇醜生名曲之倒卷珠簾
藝術大師:文覺非
演奏樂隊:廣東粵劇院樂隊+廣州樂友聯誼會
資源來源:CD自抓
出版發行:中國唱片廣州公司
專輯曲目:
        01.賞景吟詩忘歸  
        02.錯搶須眉當嬌娥
        03.沙煲曲
        04.拉郞
        05.包你結良緣
        06.一枝花
        07.倒卷珠簾
        08.餘俠魂訴情
        09.借靴
        10.顏老大娶妻

文覺非簡介:
來自百度,多謝原作者!
文觉非,广东番禺人。1913年生。先演文武生,后改丑生。青年时期在新加坡演出十多年,闻名于东南亚一带。1942年后回广州、香港、澳门等地演出。解放后与罗品超等共组珠江粤剧团,任副主任委员。在唱腔和表演上,继承发展了前辈艺人的优秀传统,吸收借鉴其他剧种以及话剧、电影等的表演艺术,且有创新,自成一派。以演《借靴》中贾二、《拉郎配》中董代、《山乡风云》中斩尾蛇、《打铜锣》中蔡九等著称。从他专工文武生行当到后来丑生的转变更受欢迎,既是他艺术上的突破,也让我们现在的舞台有所深思。
文觉非(1913年——1997年3月)
1952年,在《表忠》饰杜君厚获中南区戏曲观摩演出演员奖(个人奖);同年该剧再获第一届全国戏曲观摩演出演员一等奖,剧目演出二等奖。1952——1957年初,在珠江粤剧团任正印丑生。
广东番禺人。1913年生。先演文武生,后改丑生。青年时期在新加坡演出十多年,闻名于东南亚一带。
1942年后回广州、香港、澳门等地演出。解放后与罗品超等共组珠江粤剧团,任副主任委员。在唱腔和表演上,继承发展了前辈艺人的优秀传统,吸收借鉴其他剧种以及话剧、电影等的表演艺术,且有创新,自成一派。以演《借靴》中贾二、《拉郎配》中董代、《山乡风云》中斩尾蛇、《打铜锣》中蔡九等著称。从他专工文武生行当到后来丑生的转变更受欢迎,既是他艺术上的突破,也让我们如今的舞台有所深思。 文觉非(1913年——1997年3月)一级演员。十六岁在新加坡参 加业余话剧团演出,十八岁拜当地一个粤剧演员克明德为师,正式进入粤剧界。他聪明勤学,而且有幸能和一些名演员同台演出,从中得益不浅,只在三两年间便升为正印小生,相继在南洋各埠演戏。“七.七”芦沟桥事变前后,他已在南洋成名,年约二十六、七岁,被称为“四大天王”之一。
1950年于广州市定居,以后选定丑生为表演专业。
1952年,在《表忠》饰杜君厚获中南区戏曲观摩演出演员奖(个人奖);同年该剧再获第一届全国戏曲观摩演出演员一等奖, 剧目演出二等奖。
1952——1957年初,在珠江粤剧团任正印丑生。
1957年底,和白驹荣、谭玉真等合作首演《拉郎配》,为粤剧艺坛的盛事。
他戏路较广,丑生、文武生、小武的角色均能胜任,扮演的角色大多数是丑生应工,如在《葛麻》中饰演葛麻、《山东响马》饰广东先生、《凉亭会妻》饰赵义祥、《拉郎配》饰董代等。另外,他参演的剧目有:《借靴》、《选女婿》、《山乡风云》、《打铜锣》等。他在剧中的一些唱段成为了名曲,常于电台广播。此外,还参加了三部电影和一部电视连续剧的拍摄,在电影《七十二家房客》中扮演的太子炳,给人留下了难忘的记忆。
1958年至退休,他在广东粤剧院历任团长、艺术指导、艺术顾问等职。
简介:根据上海市大公滑稽剧团同名舞台剧改编。解放前,广州市的一幢破旧的大院里住着72家穷苦的房客。屋主炳根和他的老婆八姑是流氓恶霸,房客们深受他们的欺压。为了发财,炳根夫妇想把大院改成个吃、喝、嫖、赌的场所“逍遥宫”,请来了**“369'’号帮他们撵走全部房客。房客们在反逼迁斗争中团结起来,使炳根夫妇计不得逞。炳根夫妇由“369'’搭线,决定把自己的漂亮养女阿香送给**分局长当姨太太,以便依仗分局长的势力来撵走这批房客。股东们见“逍遥宫”有**分局长撑腰,踊跃把股金交给了炳根。但是,阿香坚决不从分局长,从分局长的迎亲筵席上逃回大院。房客们同情她,把她藏了起来,使炳根他们遍找无着,急得炳根挟着股金想逃跑。结果,局长判了炳根夫妇招摇撞骗、挟款私逃的罪,关进了监狱,而把股金没收归己。阿香幸得安然无恙,七十二家房客也因“逍遥宫”的流产,得在这破旧的大院里暂且安身,而免露宿街头。影片揭示了解放前统治阶级与黑势力的勾结和欺诈,歌颂劳动人民的阶级友爱与机智勇敢的斗争精神。

本資源保證是本人一手自抓,壓縮包內有大圖若干,並添加了百分之三的恢復記錄。
1_副本.jpg
02_副本.jpg
07_副本.jpg
11_副本.jpg
12_副本.jpg
10_副本.jpg
1.jpg
4.jpg
5.jpg
6.jpg
7.jpg

抓取日誌:
EAC 抓取日志文件从25. 七月 2013, 11:52 用于 CD
文覺非 / 粵劇醜生名曲之倒卷珠簾
使用驱动器  :TEAC    CD-W540E   Adapter: 0  ID: 1
读取模式    :不使用 C2,使用精确流, 禁用缓存的安全模式
读取偏移校正:686
读取 Lead-In 和 Lead-Out : 否
所用输出模式:内部 WAV 函数
                     44.100 Hz;16 Bit;立体声
其他选项    :
    用静音填充抓取中丢失偏移的采样 : 是
    去除首尾静音块 : 否
    Win NT 及 2000 本地 Win32 接口

范围状态及错误
已选择范围
     文件名 J:\84670614抓轨\文覺非【粵劇精英(經典唱腔名曲精選2-4)】專輯.wav
     峰值电平 100.0 %
     范围质量 99.9 %
     CRC E581D710
     复制成功
没有错误发生
状态报告结尾

索引文件:
PERFORMER "文覺非"
TITLE "粵劇醜生名曲之倒卷珠簾"
FILE "文覺非【粵劇精英(經典唱腔名曲精選2-4)】專輯.wav" WAVE
  TRACK 01 AUDIO
    TITLE "賞景吟詩忘歸途"
    PERFORMER "文覺非"
    FLAGS DCP
    INDEX 01 00:00:00
  TRACK 02 AUDIO
    TITLE "錯搶須眉當嬌娥"
    PERFORMER "文覺非"
    FLAGS DCP
    INDEX 00 03:35:56
    INDEX 01 03:40:56
  TRACK 03 AUDIO
    TITLE "沙煲曲"
    PERFORMER "文覺非"
    FLAGS DCP
    INDEX 00 12:44:34
    INDEX 01 12:49:34
  TRACK 04 AUDIO
    TITLE "拉郞"
    PERFORMER "文覺非"
    FLAGS DCP
    INDEX 00 15:37:21
    INDEX 01 15:42:21
  TRACK 05 AUDIO
    TITLE "包你結良緣"
    PERFORMER "文覺非"
    FLAGS DCP
    INDEX 00 17:48:03
    INDEX 01 17:53:02
  TRACK 06 AUDIO
    TITLE "一枝花"
    PERFORMER "文覺非"
    FLAGS DCP
    INDEX 00 19:59:60
    INDEX 01 20:04:60
  TRACK 07 AUDIO
    TITLE "倒卷珠簾"
    PERFORMER "文覺非"
    FLAGS DCP
    INDEX 00 22:19:07
    INDEX 01 22:24:07
  TRACK 08 AUDIO
    TITLE "餘俠魂訴情"
    PERFORMER "文覺非"
    FLAGS DCP
    INDEX 00 27:46:28
    INDEX 01 27:51:28
  TRACK 09 AUDIO
    TITLE "借靴"
    PERFORMER "文覺非"
    FLAGS DCP
    INDEX 00 36:30:70
    INDEX 01 36:35:70
  TRACK 10 AUDIO
    TITLE "顏老大娶妻"
    PERFORMER "文覺非"
    FLAGS DCP
    INDEX 00 47:10:57
    INDEX 01 47:15:57

下載地址:
游客,如果您要查看本帖隐藏内容请回复


文覺非【粵劇精英(經典唱腔名曲精選2-4)】密碼.rar (180 Bytes, 下载次数: 106)

评分

参与人数 1威望积分 +500 风云金币 +5 收起 理由
爱的天堂 + 500 + 5 分享不易,加分支持

查看全部评分

回复

使用道具 举报

发表于 2015-10-29 21:34:28 | 显示全部楼层
就记得他的《拉郎配》,和《补锅》
回复 支持 反对

使用道具 举报

发表于 2015-10-30 00:29:50 | 显示全部楼层
有粤曲名家的唱腔欣赏太好了,谢分享。
回复 支持 反对

使用道具 举报

发表于 2015-10-30 00:53:39 | 显示全部楼层
罕有的资源,谢谢分享。
回复 支持 反对

使用道具 举报

发表于 2015-10-30 09:22:53 | 显示全部楼层
收藏都要收全套啊!粤曲名家的唱腔欣赏老界介下载试试
回复 支持 反对

使用道具 举报

发表于 2015-10-30 12:42:18 | 显示全部楼层
谢谢分享,谢谢分享。
回复 支持 反对

使用道具 举报

发表于 2015-10-30 20:17:15 | 显示全部楼层
又一个经典的粤剧,好欢喜。
回复 支持 反对

使用道具 举报

 楼主| 发表于 2015-10-31 14:39:57 | 显示全部楼层
大家都將自己私藏的粵曲粵劇資源大家共享吧!{:
回复 支持 反对

使用道具 举报

发表于 2015-11-1 16:55:06 | 显示全部楼层
好开心啊,谢谢楼主分享。
回复 支持 反对

使用道具 举报

发表于 2015-11-2 22:22:55 | 显示全部楼层
最喜欢他演唱的《拉郎配》,好听,音质也很好。
回复 支持 反对

使用道具 举报

发表于 2015-11-3 20:11:02 | 显示全部楼层
文觉非,广东番禺人。青年时期在新加坡演出十多年,闻名于东南亚一带。1913年生。先演文武生,后改丑生。
回复 支持 反对

使用道具 举报

发表于 2015-11-11 16:04:23 来自手机 | 显示全部楼层
多谢楼主分享好资源,收下了
回复 支持 反对

使用道具 举报

发表于 2015-11-11 23:38:10 | 显示全部楼层
有粤曲名家的唱腔欣赏太好了,谢分享。
回复 支持 反对

使用道具 举报

发表于 2015-11-12 06:11:13 | 显示全部楼层
谢谢楼主的热心分享。
回复 支持 反对

使用道具 举报

发表于 2015-11-23 22:21:40 | 显示全部楼层
下载听听多谢分享
回复 支持 反对

使用道具 举报

您需要登录后才可以回帖 登录 | 注册会员

本版积分规则

Archiver|手机版|联系我们|风云音乐谷 ( 粤ICP备09098429号-2 )  

GMT+8, 2018-6-24 19:18 , Processed in 0.107939 second(s), 22 queries .

Powered by Discuz! X3.4

© 2001-2017 Comsenz Inc.

快速回复 返回顶部 返回列表