设为首页收藏本站

风云音乐谷

 找回密码
 注册会员

QQ登录

只需一步,快速开始

扫一扫,访问微社区


【揭露淘宝、微商卖U盘音乐、无损碟片15条惊天骗术】     【无损音乐下载、检测、使用、播放必备四步】

破解奥迪、途锐U盘播放wav、dts音乐方法 显示歌手和歌名的CD、DTS CD无损碟片制作教程 一键制作AC3 Audio DVD杜比音乐碟片
一键制作U盘(SD卡、TF卡)无损音乐教程 任何车型播放wav、flac、ape、dts无损音乐方法 一键制作DTS Audio DVD无损音乐碟片
一键批量抓取SACD光盘ISO镜像曲目的方法 一键制作世界最顶级的DVD Audio无损音乐碟片 一键制作WAV Audio DVD无损音乐碟片
U盘、碟片播放5.1环绕声dts音乐方法总结 一键制作U盘dts、wav、flac、ape视频音乐教程 一键制作DVD图片(视频)MV音乐碟片教程
查看: 2362|回复: 34
打印 上一主题 下一主题

[粤剧辑] 【84670614原抓·WAV】群 星【粵劇精英(經典唱腔名曲精選1-3)】專輯【百度網盤】

  [复制链接]
跳转到指定楼层
1
发表于 2015-10-30 20:33:54 | 只看该作者 回帖奖励 |倒序浏览 |阅读模式

这么精彩的内容,您还在等什么呢?马上注册风云音乐谷查看完整内容

您需要 登录 才可以下载或查看,没有帐号?注册会员

x
【自抓·WAV】群  星【粵劇精英(經典唱腔名曲精選1-3)】專輯【百度網盤】
資源名稱:粵劇精英
藝術大師:羅家寶+白雪紅+呂  雁+譚佩儀+薛覺先+上海妹
演奏樂隊:廣東粵劇院一團樂隊
資源來源:CD自抓
出版發行:中國唱片廣州公司
專輯曲目:
        01.前程萬里
        02.碧容探監
        03.胡不歸之慰妻

本資源為一手自抓,多謝欣賞。











下載地址:
游客,如果您要查看本帖隐藏内容请回复



解壓密碼:
群 星【粵劇精英(經典唱腔名曲精選1-3)】密碼.rar (182 Bytes, 下载次数: 136)


评分

参与人数 1威望积分 +500 风云金币 +5 收起 理由
爱的天堂 + 500 + 5 分享不易,加分支持

查看全部评分

回复

使用道具 举报

2
 楼主| 发表于 2015-10-30 20:40:54 | 只看该作者
抓取日誌:
EAC 抓取日志文件从18. 七月 2013, 12:44 用于 CD
未知艺术家 / 前程萬里
使用驱动器  :TEAC    CD-W540E   Adapter: 0  ID: 1
读取模式    :不使用 C2,使用精确流, 禁用缓存的安全模式
读取偏移校正:686
读取 Lead-In 和 Lead-Out : 否
所用输出模式:内部 WAV 函数
                     44.100 Hz;16 Bit;立体声
其他选项    :
    用静音填充抓取中丢失偏移的采样 : 是
    去除首尾静音块 : 否
    Win NT 及 2000 本地 Win32 接口

范围状态及错误
已选择范围
     文件名 J:\84670614抓轨\群  星【粵劇精英(經典唱腔名曲精選1-3)】專.wav
     峰值电平 100.0 %
     范围质量 100.0 %
     CRC 55F76A47
     复制成功
没有错误发生
状态报告结尾

索引文件:
PERFORMER "未知艺术家"
TITLE "前程萬里"
FILE "群  星【粵劇精英(經典唱腔名曲精選1-3)】專.wav" WAVE
  TRACK 01 AUDIO
    TITLE "前程萬里"
    PERFORMER "羅家寶+白雪紅"
    FLAGS DCP
    INDEX 01 00:00:00
  TRACK 02 AUDIO
    TITLE "碧容探監"
    PERFORMER "呂  雁+譚佩儀"
    FLAGS DCP
    INDEX 00 15:17:49
    INDEX 01 15:22:48
  TRACK 03 AUDIO
    TITLE "胡不歸之慰妻"
    PERFORMER "薛覺先+上海妹"
    FLAGS DCP
    INDEX 00 42:37:69
    INDEX 01 42:42:69

回复 支持 反对

使用道具 举报

3
发表于 2015-10-30 22:00:34 | 只看该作者
名家名曲,听出耳油!
回复 支持 反对

使用道具 举报

4
发表于 2015-10-30 22:23:11 | 只看该作者
粤曲资源少,难得
回复 支持 反对

使用道具 举报

5
发表于 2015-10-30 22:29:44 | 只看该作者
呵呵,楼主,你的好东东真多,感谢分享。
回复 支持 反对

使用道具 举报

6
发表于 2015-10-31 00:06:51 | 只看该作者
能有粤剧名曲太好了,谢分享。
回复 支持 反对

使用道具 举报

7
发表于 2015-10-31 09:19:30 | 只看该作者
你的好东东,老界介感谢你分享。
回复 支持 反对

使用道具 举报

8
发表于 2015-10-31 21:41:57 | 只看该作者
好听戏曲,值得回味。
回复 支持 反对

使用道具 举报

9
发表于 2015-11-1 09:39:54 | 只看该作者
谢谢楼主分享谢谢
回复 支持 反对

使用道具 举报

10
发表于 2015-11-2 05:37:22 | 只看该作者
好开心啊,谢谢楼主分享。
回复 支持 反对

使用道具 举报

11
发表于 2015-11-2 22:55:59 | 只看该作者
谢谢了,粤剧资源越来越难找了。
回复 支持 反对

使用道具 举报

12
发表于 2015-11-3 19:52:02 | 只看该作者
谢谢楼主无私分享!
回复 支持 反对

使用道具 举报

13
发表于 2015-11-11 16:05:05 来自手机 | 只看该作者
多谢楼主分享好资源,收下了。
回复 支持 反对

使用道具 举报

14
发表于 2015-11-12 06:02:34 | 只看该作者
谢谢楼主的热心分享。
回复 支持 反对

使用道具 举报

15
发表于 2015-11-23 22:24:58 | 只看该作者
下载听听多谢分享
回复 支持 反对

使用道具 举报

您需要登录后才可以回帖 登录 | 注册会员

本版积分规则

Archiver|手机版|联系我们|风云音乐谷 ( 粤ICP备09098429号-2 )  

GMT+8, 2018-7-17 22:52 , Processed in 0.340028 second(s), 19 queries .

Powered by Discuz! X3.4

© 2001-2017 Comsenz Inc.

快速回复 返回顶部 返回列表