设为首页收藏本站

风云音乐谷

 找回密码
 注册会员

QQ登录

只需一步,快速开始

扫一扫,访问微社区


【揭露淘宝、微商卖U盘音乐、无损碟片15条惊天骗术】     【无损音乐下载、检测、使用、播放必备四步】

破解奥迪、途锐U盘播放wav、dts音乐方法 显示歌手和歌名的CD、DTS CD无损碟片制作教程 一键制作AC3 Audio DVD杜比音乐碟片
一键制作U盘(SD卡、TF卡)无损音乐教程 任何车型播放wav、flac、ape、dts无损音乐方法 一键制作DTS Audio DVD无损音乐碟片
一键批量抓取SACD光盘ISO镜像曲目的方法 一键制作世界最顶级的DVD Audio无损音乐碟片 一键制作WAV Audio DVD无损音乐碟片
U盘、碟片播放5.1环绕声dts音乐方法总结 一键制作U盘dts、wav、flac、ape视频音乐教程 一键制作DVD图片(视频)MV音乐碟片教程
查看: 2651|回复: 32

[粤剧辑] 【84670614原抓·WAV】群 星【粵劇精英(經典唱腔名曲精選2-1)】專輯【百度網盤】

  [复制链接]
发表于 2015-10-30 20:59:36 | 显示全部楼层 |阅读模式

这么精彩的内容,您还在等什么呢?马上注册风云音乐谷查看完整内容

您需要 登录 才可以下载或查看,没有帐号?注册会员

x
資源名稱:搜書院(上集)
藝術大師:馬師曾+紅線女+呂玉郎
演奏樂隊:廣東粵劇院樂隊+廣州樂友聯誼會
資源來源:CD自抓
出版發行:中國唱片廣州公司
專輯曲目:
        01.線斷箏飄
        02.初遇訴情
        03.嚴刑逼訊
        04.柴房自嘆
        05.步月抒懷
        06.書房相會(上)

本資源是本人一手自抓,壓縮包內有大圖若干,並添加了百分之三嘅恢復記錄。謝謝大家的欣賞!

粵劇·搜書院簡介:資料來自百度,多謝原作者!
    搜書院是流傳在海南的著名故事,著名瓊劇劇碼。  據傳謝寶掌教瓊台書院的清雍正、乾隆年間,在這裏發生過“搜書院”的動人故事:門生張日曼遊覽軍坡拾到金釵一枝,歸院路上遇到前來為鎮台愛妾尋找丟金釵的婢女紫英。張將金釵交還,並對紫英的僕婢生活深表同情。紫英為日曼的人品所感動,張日曼欽佩紫英的聰敏。於是,兩人互表愛慕。鎮台知情後,欲強娶紫英為小妄,紫英不從,慘遭毒打,逃人書院找張日曼求救。鎮台派兵包圍書院,書院掌教謝寶出於義憤,以自己坐轎底格藏紫英出圍,擺下“空城計”,使鎮台搜查書院撲空一場。紫英脫險後,幾經周折,終於和張日曼結成眷屬。此故事在民間流傳二百多年,五十年代,海南瓊劇界將之編寫為《搜書院》瓊劇劇本,由瓊劇著名表演藝術家黃文、陳華、紅梅主演,深受海南人民歡迎。後來,《搜書院》被移植改編為粵劇劇本,經粵劇著名表演藝術家馬師曾、紅線女主演並搬上銀幕。於是,瓊台書院蜚聲海內外,引來中外遊客絡繹不絕。



抓取日誌:
EAC 抓取日志文件从22. 七月 2013, 2:31 用于 CD
馬師曾+紅線女+呂玉郎 / 搜書院(上集)
使用驱动器  :TEAC    CD-W540E   Adapter: 0  ID: 1
读取模式    :不使用 C2,使用精确流, 禁用缓存的安全模式
读取偏移校正:686
读取 Lead-In 和 Lead-Out : 否
所用输出模式:内部 WAV 函数
                     44.100 Hz;16 Bit;立体声
其他选项    :
    用静音填充抓取中丢失偏移的采样 : 是
    去除首尾静音块 : 否
    Win NT 及 2000 本地 Win32 接口

范围状态及错误
已选择范围
     文件名 J:\84670614抓轨\群   星【粵劇精英(經典唱腔名曲精選2-1)】專輯.wav
     峰值电平 100.0 %
     范围质量 99.9 %
     CRC 8BCA7EB5
     复制成功
没有错误发生
状态报告结尾

索引文件:
PERFORMER "馬師曾+紅線女+呂玉郎"
TITLE "搜書院(上集)"
FILE "群   星【粵劇精英(經典唱腔名曲精選2-1)】專輯.wav" WAVE
  TRACK 01 AUDIO
    TITLE "線斷箏飄"
    PERFORMER "馬師曾+紅線女+呂玉郎"
    FLAGS DCP
    INDEX 01 00:00:00
  TRACK 02 AUDIO
    TITLE "初遇訴情"
    PERFORMER "馬師曾+紅線女+呂玉郎"
    FLAGS DCP
    INDEX 00 08:27:65
    INDEX 01 08:32:65
  TRACK 03 AUDIO
    TITLE "嚴刑逼訊"
    PERFORMER "馬師曾+紅線女+呂玉郎"
    FLAGS DCP
    INDEX 00 24:45:48
    INDEX 01 24:50:48
  TRACK 04 AUDIO
    TITLE "柴房自嘆"
    PERFORMER "馬師曾+紅線女+呂玉郎"
    FLAGS DCP
    INDEX 00 36:52:62
    INDEX 01 36:57:62
  TRACK 05 AUDIO
    TITLE "步月抒情"
    PERFORMER "馬師曾+紅線女+呂玉郎"
    FLAGS DCP
    INDEX 00 48:26:39
    INDEX 01 48:31:39
  TRACK 06 AUDIO
    TITLE "書房相會(上)"
    PERFORMER "馬師曾+紅線女+呂玉郎"
    FLAGS DCP
    INDEX 00 55:17:25
    INDEX 01 55:22:23



1_副本.jpg
02_副本.jpg
09_副本.jpg
10_副本.jpg
1.jpg
2.jpg
3.jpg
4.jpg
5.jpg
01.JPG

下載地址:

游客,如果您要查看本帖隐藏内容请回复


解壓密碼

群 星【粵劇精英(經典唱腔名曲精選2-1)】密碼.rar (191 Bytes, 下载次数: 90)

评分

参与人数 1威望积分 +500 风云金币 +5 收起 理由
爱的天堂 + 500 + 5 分享不易,加分支持

查看全部评分

回复

使用道具 举报

发表于 2015-10-30 21:58:23 | 显示全部楼层
呵呵,真好,有这么多好曲!
回复 支持 反对

使用道具 举报

发表于 2015-10-30 23:13:34 | 显示全部楼层
再下一个就休息,感谢楼主,辛苦了。
回复 支持 反对

使用道具 举报

发表于 2015-10-31 00:08:00 | 显示全部楼层
能有粤剧名曲太好了,谢分享。
回复 支持 反对

使用道具 举报

发表于 2015-11-1 09:43:35 | 显示全部楼层
谢谢楼主分享谢谢
回复 支持 反对

使用道具 举报

发表于 2015-11-2 05:42:04 | 显示全部楼层
感谢楼主,来一些好资源分享
回复 支持 反对

使用道具 举报

发表于 2015-11-2 23:00:19 | 显示全部楼层
马师曾的经典名曲,好像重新编制过多。
回复 支持 反对

使用道具 举报

发表于 2015-11-3 19:45:42 | 显示全部楼层
嚴刑逼訊他在柴房自嘆。
回复 支持 反对

使用道具 举报

发表于 2015-11-3 19:49:06 | 显示全部楼层
喜欢这样的音乐谢谢了
回复 支持 反对

使用道具 举报

发表于 2015-11-11 09:52:48 | 显示全部楼层
老界介感谢楼主,辛苦了。
回复 支持 反对

使用道具 举报

发表于 2015-11-11 15:33:46 来自手机 | 显示全部楼层
多谢楼主分享,旧爱仍是最美
回复 支持 反对

使用道具 举报

发表于 2015-11-28 15:50:41 | 显示全部楼层
很喜欢这个人的声音,谢谢楼主辛苦上传
回复 支持 反对

使用道具 举报

发表于 2015-12-8 11:39:43 | 显示全部楼层
请继续,谢分享,,,,,,,,,,,,,,
回复 支持 反对

使用道具 举报

发表于 2015-12-23 10:06:06 | 显示全部楼层
感谢楼主分享发烧音乐资源
回复 支持 反对

使用道具 举报

发表于 2016-1-7 09:45:21 | 显示全部楼层
感谢楼主分享佳作
回复 支持 反对

使用道具 举报

您需要登录后才可以回帖 登录 | 注册会员

本版积分规则

Archiver|手机版|联系我们|风云音乐谷 ( 粤ICP备09098429号-2 )  

GMT+8, 2018-6-23 08:51 , Processed in 0.088154 second(s), 20 queries .

Powered by Discuz! X3.4

© 2001-2017 Comsenz Inc.

快速回复 返回顶部 返回列表