设为首页收藏本站

风云音乐谷

 找回密码
 注册会员

QQ登录

只需一步,快速开始

扫一扫,访问微社区


【揭露淘宝、微商卖U盘音乐、无损碟片15条惊天骗术】     【无损音乐下载、检测、使用、播放必备四步】

破解奥迪、途锐U盘播放wav、dts音乐方法 显示歌手和歌名的CD、DTS CD无损碟片制作教程 一键制作AC3 Audio DVD杜比音乐碟片
一键制作U盘(SD卡、TF卡)无损音乐教程 任何车型播放wav、flac、ape、dts无损音乐方法 一键制作DTS Audio DVD无损音乐碟片
一键批量抓取SACD光盘ISO镜像曲目的方法 一键制作世界最顶级的DVD Audio无损音乐碟片 一键制作WAV Audio DVD无损音乐碟片
U盘、碟片播放5.1环绕声dts音乐方法总结 一键制作U盘dts、wav、flac、ape视频音乐教程 一键制作DVD图片(视频)MV音乐碟片教程
查看: 2396|回复: 33

[粤剧辑] [84670614原抓·WAV]白雪紅【演唱專輯(粵劇名家經典3-4)】專輯[百度網盤]

  [复制链接]
发表于 2015-10-31 04:20:00 | 显示全部楼层 |阅读模式

这么精彩的内容,您还在等什么呢?马上注册风云音乐谷查看完整内容

您需要 登录 才可以下载或查看,没有帐号?注册会员

x
[自抓·WAV]白雪紅【演唱專輯(粵劇名家經典3-4)】專輯[百度網盤]

[自抓·WAV]白雪紅【演唱專輯(粵劇名家經典3-4)】專輯[百度網盤]
資源名稱:白雪紅演唱專輯
藝術大師:白雪紅
資源來源:CD自抓
出版發行:中唱广州公司
專輯曲目:
        01.幻覺離恨天
        02.環佩魂歸
        03.雪中燕
        04.倩女魂
        05.花前遇俠
        06.殘夜泣箋
        07.龍女牧羊詞

本資源保證是本人一手自抓,壓縮包內有大圖若干,並添加了百分之三的恢復記錄。謝謝大家的欣賞!

白雪紅【演唱專輯(粵劇名家經典3-4)】封面_副本.jpg
白雪紅【演唱專輯(粵劇名家經典3-4)】封底_副本.jpg
白雪紅【演唱專輯(粵劇名家經典3-4)】光碟_副本.jpg
001.JPG
002.JPG
003.JPG
004.JPG
006.jpg

抓取日誌:
EAC 抓取日志文件从23. 八月t 2013, 12:58 用于 CD
白雪紅 / 白雪紅演唱專輯
使用驱动器  :SONY    DVD-ROM DDU1621   Adapter: 0  ID: 0
读取模式    :不使用 C2,使用精确流, 禁用缓存的安全模式
读取偏移校正:594
读取 Lead-In 和 Lead-Out : 否
所用输出模式:内部 WAV 函数
                     44.100 Hz;16 Bit;立体声
其他选项    :
    用静音填充抓取中丢失偏移的采样 : 是
    去除首尾静音块 : 否
    Win NT 及 2000 本地 Win32 接口

范围状态及错误
已选择范围
     文件名 J:\84670614抓轨\白雪紅【演唱專輯(粵劇名家經典3-4)】專輯.wav
     峰值电平 100.0 %
     范围质量 100.0 %
     CRC D698DF70
     复制成功
没有错误发生
状态报告结尾

索引文件:
PERFORMER "白雪紅"
TITLE "白雪紅演唱專輯"
FILE "白雪紅【演唱專輯(粵劇名家經典3-4)】專輯.wav" WAVE
  TRACK 01 AUDIO
    TITLE "幻覺離恨天"
    PERFORMER "白雪紅"
    INDEX 01 00:00:00
  TRACK 02 AUDIO
    TITLE "環佩魂歸"
    PERFORMER "白雪紅"
    INDEX 01 09:42:00
  TRACK 03 AUDIO
    TITLE "雪中燕"
    PERFORMER "白雪紅"
    INDEX 01 13:47:00
  TRACK 04 AUDIO
    TITLE "倩女魂"
    PERFORMER "白雪紅"
    INDEX 01 19:00:00
  TRACK 05 AUDIO
    TITLE "花前遇俠"
    PERFORMER "白雪紅"
    INDEX 01 23:00:00
  TRACK 06 AUDIO
    TITLE "殘夜泣箋"
    PERFORMER "白雪紅"
    INDEX 01 31:46:00
  TRACK 07 AUDIO
    TITLE "龍女牧羊詞"
    PERFORMER "白雪紅"
    INDEX 01 46:34:00


下載地址:
游客,如果您要查看本帖隐藏内容请回复


解壓密碼
白雪紅【演唱專輯(粵劇名家經典3-4)】密碼.rar (175 Bytes, 下载次数: 72)

评分

参与人数 1威望积分 +500 风云金币 +5 收起 理由
爱的天堂 + 500 + 5 分享不易,加分支持

查看全部评分

回复

使用道具 举报

发表于 2015-10-31 09:15:03 | 显示全部楼层
灰常喜欢粤曲,谢谢楼主无私分享。
回复 支持 反对

使用道具 举报

发表于 2015-10-31 10:55:22 | 显示全部楼层
喜欢听粤剧的故事,
回复 支持 反对

使用道具 举报

 楼主| 发表于 2015-10-31 13:38:49 | 显示全部楼层
響應『樂東』同學號召,大家將自己私藏的粵曲粵劇資源共享吧,眾人拾柴火焰高![/
回复 支持 反对

使用道具 举报

发表于 2015-10-31 13:41:53 | 显示全部楼层
楼主辛苦了,请继续,谢分享。
回复 支持 反对

使用道具 举报

 楼主| 发表于 2015-10-31 14:11:28 | 显示全部楼层
gzzwsy 发表于 2015-10-31 13:41
楼主辛苦了,请继续,谢分享。

響應『樂東』同學號召,大家將自己私藏的粵曲粵劇資源共享吧,眾人拾柴火焰高!
回复 支持 反对

使用道具 举报

发表于 2015-10-31 17:22:13 | 显示全部楼层
呵呵,还是喜欢折子戏多点。
回复 支持 反对

使用道具 举报

发表于 2015-10-31 21:56:52 | 显示全部楼层
好听戏曲,值得回味。
回复 支持 反对

使用道具 举报

发表于 2015-11-1 09:23:35 | 显示全部楼层
谢谢楼主分享谢谢
回复 支持 反对

使用道具 举报

发表于 2015-11-2 05:32:53 | 显示全部楼层
多谢楼主无私分享。
回复 支持 反对

使用道具 举报

发表于 2015-11-2 20:12:02 | 显示全部楼层
谢谢分享,谢谢分享。
回复 支持 反对

使用道具 举报

发表于 2015-11-3 00:56:37 | 显示全部楼层
每人都分享一点,大家就有听不完的粤曲了。
回复 支持 反对

使用道具 举报

发表于 2015-11-3 19:39:20 | 显示全部楼层
花前遇俠原来是雪中燕。
回复 支持 反对

使用道具 举报

发表于 2015-11-10 20:23:14 | 显示全部楼层
谢谢楼主的热心分享。
回复 支持 反对

使用道具 举报

发表于 2015-11-11 15:35:39 来自手机 | 显示全部楼层
多谢楼主分享,好人一生平安
回复 支持 反对

使用道具 举报

您需要登录后才可以回帖 登录 | 注册会员

本版积分规则

Archiver|手机版|联系我们|风云音乐谷 ( 粤ICP备09098429号-2 )  

GMT+8, 2018-8-21 08:08 , Processed in 0.081142 second(s), 21 queries .

Powered by Discuz! X3.4

© 2001-2017 Comsenz Inc.

快速回复 返回顶部 返回列表