设为首页收藏本站

风云音乐谷

 找回密码
 注册会员

QQ登录

只需一步,快速开始

扫一扫,访问微社区


【揭露淘宝、微商卖U盘音乐、无损碟片15条惊天骗术】     【无损音乐下载、检测、使用、播放必备四步】

破解奥迪、途锐U盘播放wav、dts音乐方法 显示歌手和歌名的CD、DTS CD无损碟片制作教程 一键制作AC3 Audio DVD杜比音乐碟片
一键制作U盘(SD卡、TF卡)无损音乐教程 任何车型播放wav、flac、ape、dts无损音乐方法 一键制作DTS Audio DVD无损音乐碟片
一键批量抓取SACD光盘ISO镜像曲目的方法 一键制作世界最顶级的DVD Audio无损音乐碟片 一键制作WAV Audio DVD无损音乐碟片
U盘、碟片播放5.1环绕声dts音乐方法总结 一键制作U盘dts、wav、flac、ape视频音乐教程 一键制作DVD图片(视频)MV音乐碟片教程
查看: 2395|回复: 27
打印 上一主题 下一主题

[粤剧辑] 【84670614原抓·WAV】群 星【珍珠慰寂寥(粵劇名家經典3-1)】專輯【百度網盤】

[复制链接]
跳转到指定楼层
1
发表于 2015-10-31 13:15:50 | 只看该作者 回帖奖励 |倒序浏览 |阅读模式

这么精彩的内容,您还在等什么呢?马上注册风云音乐谷查看完整内容

您需要 登录 才可以下载或查看,没有帐号?注册会员

x
【自抓·WAV】群  星【珍珠慰寂寥(粵劇名家經典3-1)】專輯【百度網盤】
資源名稱:珍珠慰寂寥
藝術大師:文千歲+倪惠英+陳小漢+梁少心
資源來源:CD自抓
出版發行:中唱广州公司
專輯曲目:
        01.珍珠慰寂寥
        02.夢會太湖
        03.七月落薇花

本資源保證是本人一手自抓,壓縮包內有大圖若干,並添加了百分之三的恢復記錄。謝謝大家的欣賞!

文千歲+陳小漢簡介:
資料來自百度,謹向原作者致謝!
文千岁,香港著名粤剧表演艺术家,出身於戏剧世家。文千岁曾演出长剧超过百套,如《胡不归》、《大闹青竹寺》、《三戏周瑜》、《吕布与貂蝉》、《西施》、《唐宫恨史》、《梁祝恨史》等;折子戏有《李陵困谷》、《秦琼卖马》、《驿馆怜香》、《山东响马》、《醉打金枝》等。曾灌录粤曲唱片盒带超过一百八十多款。历年来曾获云雀奖、「粤剧艺术家贡献奖状」、「潇洒腔曲王」荣誉奖等。文氏功底扎实、文武全才、声线甜润、唱腔流畅、吐字清楚,唱功早受行内及观众赞赏,曾拜师高胡大师余其伟教授门下学习高胡,是一位不可多得的粤剧艺术家。
陈小汉,粤剧文武生演员、导演。广东省台山市人。出生于戏剧世家,祖父、父母都是过去的粤剧名演员。著名粤剧表演艺术家、唱腔研究家陈小汉先生,自1992年首开粤剧文武生“个唱”之先河,在穗、港、澳三地成功举办《陈小汉唱腔欣赏会》后,于今已有十度春秋,10年中陈小汉老骥伏枥,志在千里,不仅对原来的首本曲目精益求精,而且陆续推出一首首新曲目。2002年12月,他将推出第二次个人演唱会“ B腔韵动五洲情———陈小汉艺术欣赏会”,以新老粤曲会天下知音。

抓取日誌:
EAC 抓取日志文件从11. 八月t 2013, 18:09 用于 CD
文千歲+倪惠英 / 珍珠慰寂寥
使用驱动器  :SONY    DVD-ROM DDU1621   Adapter: 0  ID: 0
读取模式    :不使用 C2,使用精确流, 禁用缓存的安全模式
读取偏移校正:594
读取 Lead-In 和 Lead-Out : 否
所用输出模式:内部 WAV 函数
                     44.100 Hz;16 Bit;立体声
其他选项    :
    用静音填充抓取中丢失偏移的采样 : 是
    去除首尾静音块 : 否
    Win NT 及 2000 本地 Win32 接口

范围状态及错误
已选择范围
     文件名 J:\84670614抓轨\珍珠慰寂寥.wav
     峰值电平 94.4 %
     范围质量 100.0 %
     CRC C79DE033
     复制成功
没有错误发生
状态报告结尾

索引文件:
PERFORMER "文千歲+倪惠英"
TITLE "珍珠慰寂寥"
FILE "珍珠慰寂寥.wav" WAVE
  TRACK 01 AUDIO
    TITLE "珍珠慰寂寥"
    PERFORMER "文千歲+倪惠英"
    INDEX 01 00:00:00
  TRACK 02 AUDIO
    TITLE "夢會太湖"
    PERFORMER "陳小漢+梁少心"
    INDEX 00 18:17:63
    INDEX 01 18:20:63
  TRACK 03 AUDIO
    TITLE "七月落薇花"
    PERFORMER "文千歲"
    INDEX 00 39:55:13
    INDEX 01 39:58:13
掃描圖片









下載地址
游客,如果您要查看本帖隐藏内容请回复


解壓密碼
群 星【珍珠慰寂寥】密碼.rar (152 Bytes, 下载次数: 57)





评分

参与人数 1威望积分 +500 风云金币 +5 收起 理由
爱的天堂 + 500 + 5 稀有资源,感谢分享

查看全部评分

回复

使用道具 举报

2
发表于 2015-10-31 13:30:16 | 只看该作者
楼主辛苦了,请继续,谢分享。
回复 支持 反对

使用道具 举报

3
 楼主| 发表于 2015-10-31 13:37:08 | 只看该作者
gzzwsy 发表于 2015-10-31 13:30
楼主辛苦了,请继续,谢分享。

響應『樂東』同學號召,大家將自己私藏的粵曲粵劇資源共享吧!
回复 支持 反对

使用道具 举报

4
发表于 2015-10-31 17:17:59 | 只看该作者
珍珠慰寂寥,好曲!
回复 支持 反对

使用道具 举报

5
发表于 2015-11-1 15:47:40 | 只看该作者
本帖最后由 weidabang 于 2015-11-2 20:39 编辑

谢谢楼主分享!





.
回复 支持 反对

使用道具 举报

6
发表于 2015-11-1 19:39:23 | 只看该作者
文千岁曾演出长剧超过百套,他是香港著名粤剧表演艺术家,出身於戏剧世家。
回复 支持 反对

使用道具 举报

7
发表于 2015-11-2 06:52:16 | 只看该作者
感谢分享,收藏欣赏
回复 支持 反对

使用道具 举报

8
发表于 2015-11-2 10:36:54 | 只看该作者
楼主辛苦了,谢分享。
回复 支持 反对

使用道具 举报

9
发表于 2015-11-2 21:46:24 | 只看该作者
谢谢分享,谢谢分享。
回复 支持 反对

使用道具 举报

10
发表于 2015-11-3 00:19:54 | 只看该作者
虽然已经有这张碟,还是要支持一下。音质不错,值得收藏。
回复 支持 反对

使用道具 举报

11
发表于 2015-11-10 20:11:17 | 只看该作者
谢谢楼主的热心分享。
回复 支持 反对

使用道具 举报

12
发表于 2015-11-11 15:40:44 来自手机 | 只看该作者
多谢楼主分享,为你点赞
回复 支持 反对

使用道具 举报

13
发表于 2015-11-27 09:25:01 | 只看该作者
多谢捧场
回复 支持 反对

使用道具 举报

14
发表于 2015-11-28 14:37:37 | 只看该作者
非常喜欢的一张专辑,感謝分享!!
回复 支持 反对

使用道具 举报

15
发表于 2015-12-18 15:31:47 | 只看该作者

楼主辛苦了,请继续,谢分享。
回复 支持 反对

使用道具 举报

您需要登录后才可以回帖 登录 | 注册会员

本版积分规则

Archiver|手机版|联系我们|风云音乐谷 ( 粤ICP备09098429号-2 )  

GMT+8, 2018-7-17 22:52 , Processed in 0.279771 second(s), 19 queries .

Powered by Discuz! X3.4

© 2001-2017 Comsenz Inc.

快速回复 返回顶部 返回列表