设为首页收藏本站

风云音乐谷

 找回密码
 注册会员

QQ登录

只需一步,快速开始

扫一扫,访问微社区


【揭露淘宝、微商卖U盘音乐、无损碟片15条惊天骗术】     【无损音乐下载、检测、使用、播放必备四步】

破解奥迪、途锐U盘播放wav、dts音乐方法 显示歌手和歌名的CD、DTS CD无损碟片制作教程 一键制作AC3 Audio DVD杜比音乐碟片
一键制作U盘(SD卡、TF卡)无损音乐教程 任何车型播放wav、flac、ape、dts无损音乐方法 一键制作DTS Audio DVD无损音乐碟片
一键批量抓取SACD光盘ISO镜像曲目的方法 一键制作世界最顶级的DVD Audio无损音乐碟片 一键制作WAV Audio DVD无损音乐碟片
U盘、碟片播放5.1环绕声dts音乐方法总结 一键制作U盘dts、wav、flac、ape视频音乐教程 一键制作DVD图片(视频)MV音乐碟片教程
查看: 2389|回复: 25
打印 上一主题 下一主题

[粤剧辑] 【84670614原抓·WAV】鄭培英【唱腔藝術精選(粵劇名家經典3-2)】專輯[百度網盤]

[复制链接]
跳转到指定楼层
1
发表于 2015-10-31 13:58:53 | 只看该作者 回帖奖励 |倒序浏览 |阅读模式

这么精彩的内容,您还在等什么呢?马上注册风云音乐谷查看完整内容

您需要 登录 才可以下载或查看,没有帐号?注册会员

x
【自抓·WAV】鄭培英【唱腔藝術精選(粵劇名家經典3-2)】專輯[百度網盤]

資源名稱:鄭培英唱腔藝術精選
藝術大師:鄭培英
資源來源:自購CD自抓
出版發行:中唱广州公司
專輯曲目:
        01.琵琶詞
        02.杜麗娘寫真
        03.魂遊
        04.賣花
        05.我愛畫眉鳥

本資源保證是本人一手自抓,壓縮包內有大圖若干,並添加了百分之三的恢復記錄。資源只在本論壇與壇友分享,製作、上傳不易(單上傳就要4個鐘頭)。謝謝大家的欣賞!

鄭培英簡介:
資料來自百度,謹向原作者致謝!
郑培英,原名郑丽英,粤剧著名演员,1936年10月25日出生,广东增城县人,父亲经商,后一家定居韶关市。她父母是个典型的戏迷,培英和弟弟常跟他们去看戏和到后台看演员化妆。平时,在家常跟留声机学唱粤曲。从此,她便爱上了粤剧这一行,而且立志要做一个好演员。
郑培英戏路宽广,唱做俱佳,表演细腻感人,擅演青衣戏。她在多年的舞台  郑培英作品
实践中成功地塑造了不少古代妇女的艺术形象。如《牡丹亭》中的杜丽娘,《白蛇传》中的白素贞,《胡不归》中的赵颦娘,秦香莲以及现代剧《江姐》的江姐,《乱世姻缘》中的韩皓茹,《山乡风云》的春花等,创造了各不相同性格的人物。她演唱了不少粤曲并灌录了唱片和卡带。特别与曲艺名家黄少梅合唱的《何文秀试妻》和《珍珠喜再圆》等,为听众以赏心悦耳所享受。
一级演员,广东粤剧院艺术指导。 15岁开始在业余剧团学艺。1957年受聘到广州市“光华”、“越秀”等剧团任花旦。 1960年进入广州市粤剧团,次年进广东粤剧院任主要演员。她的唱腔清脆嘹亮,富于感情,深受观众欢迎。1965年曾参加中南汇演。从艺30多年,主演的剧目有《风月救风尘》、《血溅乌纱》、《牡丹亭》、《秀才外传》、《春草闯堂》、《胡不归》、《袁崇焕》、《秦香莲》、《山乡风云》、《北郭奇兵》、《江姐》、《红灯照》、《海角情天》、《乱世姻缘》、《高山红叶》等。 并随团到过美国、加拿大、香港、澳门等国家和地区演出。曾任院艺术指导、艺术委员会副主任、一团艺术指导、中国戏剧家协会会员、中国戏剧家协会广东分会理事、民盟省委委员、东山区政协委员及政协常委等职。
1981年演唱《断桥会》、《热情候你报佳音》获太平洋影音公司云雀奖。
1985年《海角情天》饰罗草莲获广东省现代戏汇演表演一等奖
郑培英不是科班出身,又没有经过戏剧学校的正规培训。她是靠“无师自通”踏入戏行的。她成功的要诀在于:虚心学习,博采众长,她在艰苦的学艺和实践中,洒下了不少血汗,一步一个脚印地跋涉过来的。她父母见培英技艺较有造就,便省吃俭用为她购置行头,还请擅演悲剧的傅少芳名师加以指点,并拜其为师。
一九六一年,郑培英进入了“广东粤剧院”工作,当时得与著名演员马师曾、红线女、罗品超、文觉非、少昆仑等同台演出,前辈们对她又无私地培养和提携,使她收益良深,进步突快。马师曾主演《屈原》时,曾让她饰演婢娟。有一次周总理还在广东迎宾馆里看过她们的演出。
郑培英的唱腔有较强的表现力,她的嗓音甜美,吐字准确。唱腔富于韵味,善于以声传情,她的咬字运气,得益于“红腔”真传外,还吸收了徐柳仙、上海妹、林小群等各家唱腔特点。运用于自己实践之中,终于形成了自己独特的唱腔。她从艺至今已有三十多年,她除掌握了传统的唱法外,还借鉴其他兄弟剧种的唱腔艺术,使自己的表演和唱腔适应时代的要求。
郑培英戏路宽广,唱做俱佳,表演细腻感人,擅演青衣戏。她在多年的舞台实践中成功地塑造了不少古代妇女的艺术形象。
一九八三年八月,她与罗家宝、卢秋萍、刘锦荣等随广东粤剧团赴香港、澳门等地演出。她主演的《秦香莲》情真意切,唱做自如,致令众多粤剧观众为之倾倒,赞不绝口。新马师曾在港还专程会见她,并合影留念。

郑培英的个人作品:

1、牡丹亭之拾画--关国华.郑培英
2、陈世美不认妻之闯宫(关国华,郑培英)
3、陈世美不认妻之诉苦(关国华,郑培英)
4、真假牡丹之追鱼—关国华、郑培英
5、牡丹亭—还魂—关国华、郑培英
6、搜书院之初遇诉情—李池湘/关国华
7、救风尘之盼儿智赚_关国华、谭玉真、文觉非
8、碧海狂僧--泣红(交响乐伴奏)关国华
9、游园惊梦(上)--林小群关国华
10、游园惊梦(下)--林小群关国华
11、上林苑和诗--七绝诗和(关国华黄少梅)
12、上林苑和诗--同游上苑(关国华黄少梅)
13、红线女、关国华、王中玉《沙家滨之智斗》
14、潞安州--彭炽权,郑培英
15、银河抱月归__彭炽权、郑培英
16、江上琵琶--陈笑风郑培英
17、枯井葬芳魂(清宫怨)--李宝莹郑培英)
18、洒泪别长亭--郑培英彭炽权
19、牡丹亭之杜丽娘写真--郑培英
20、丁山梨花闹洞房(选段)--郑培英姚志强
21、白居易与琵琶女--黄少梅郑培英
22、《胡不归慰妻》--罗家宝、郑培英









抓取日誌:
EAC 抓取日志文件从14. 八月t 2013, 12:32 用于 CD
唱腔藝術精選(粵劇名家經典3-2) / 鄭培英
使用驱动器  :SONY    DVD-ROM DDU1621   Adapter: 0  ID: 0
读取模式    :不使用 C2,使用精确流, 禁用缓存的安全模式
读取偏移校正:594
读取 Lead-In 和 Lead-Out : 否
所用输出模式:内部 WAV 函数
                     44.100 Hz;16 Bit;立体声
其他选项    :
    用静音填充抓取中丢失偏移的采样 : 是
    去除首尾静音块 : 否
    Win NT 及 2000 本地 Win32 接口

范围状态及错误
已选择范围
     文件名 J:\84670614抓轨\唱腔藝術精選(粵劇名家經典3-2).wav
     峰值电平 79.1 %
     范围质量 100.0 %
     CRC 6465CD1E
     复制成功
没有错误发生
状态报告结尾

索引文件:
PERFORMER "唱腔藝術精選(粵劇名家經典3-2)"
TITLE "鄭培英"
FILE "唱腔藝術精選(粵劇名家經典3-2).wav" WAVE
  TRACK 01 AUDIO
    TITLE "琵琶詞"
    PERFORMER "唱腔藝術精選(粵劇名家經典3-2)"
    INDEX 01 00:00:00
  TRACK 02 AUDIO
    TITLE "杜麗娘寫真"
    PERFORMER "唱腔藝術精選(粵劇名家經典3-2)"
    INDEX 01 09:14:00
  TRACK 03 AUDIO
    TITLE "魂遊"
    PERFORMER "唱腔藝術精選(粵劇名家經典3-2)"
    INDEX 01 25:52:00
  TRACK 04 AUDIO
    TITLE "賣花"
    PERFORMER "唱腔藝術精選(粵劇名家經典3-2)"
    INDEX 01 38:44:00
  TRACK 05 AUDIO
    TITLE "我愛畫眉鳥"
    PERFORMER "唱腔藝術精選(粵劇名家經典3-2)"
    INDEX 01 52:37:00

下載地址:
游客,如果您要查看本帖隐藏内容请回复


解壓密碼
鄭培英【唱腔藝術精選(粵劇名家經典3-2)】密碼.rar (178 Bytes, 下载次数: 53)





评分

参与人数 1威望积分 +500 风云金币 +5 收起 理由
爱的天堂 + 500 + 5 分享不易,加分支持

查看全部评分

回复

使用道具 举报

2
 楼主| 发表于 2015-10-31 14:11:50 | 只看该作者
響應『樂東』同學號召,大家將自己私藏的粵曲粵劇資源共享吧,眾人拾柴火焰高!
回复 支持 1 反对 0

使用道具 举报

3
发表于 2015-10-31 16:18:12 | 只看该作者
楼主辛苦了,请继续,谢分享。
回复 支持 反对

使用道具 举报

4
发表于 2015-10-31 17:14:04 | 只看该作者
鄭培英,没听过她的碟。
回复 支持 反对

使用道具 举报

5
发表于 2015-11-1 18:00:35 | 只看该作者
郑培英在舞台多年,戏路宽广,唱做俱佳,表演细腻感人,擅演青衣戏。
回复 支持 反对

使用道具 举报

6
发表于 2015-11-2 06:38:52 | 只看该作者
很好,谢谢楼主分享。
回复 支持 反对

使用道具 举报

7
发表于 2015-11-2 10:39:36 | 只看该作者
楼主辛苦了,谢分享。
回复 支持 反对

使用道具 举报

8
发表于 2015-11-3 00:39:23 | 只看该作者
很喜欢郑培英的 游园惊梦 ,可惜没能找到cd。
回复 支持 反对

使用道具 举报

9
发表于 2015-11-10 20:06:02 | 只看该作者
谢谢楼主的热心分享。
回复 支持 反对

使用道具 举报

10
发表于 2015-11-11 15:43:15 来自手机 | 只看该作者
多谢楼主分享,好戏连台
回复 支持 反对

使用道具 举报

11
发表于 2015-11-28 15:44:40 | 只看该作者
神秘的色彩 悠扬的旋律 美丽的地方 恋人的情思 听者的知音  谢谢楼主收藏了
回复 支持 反对

使用道具 举报

12
发表于 2015-12-25 11:12:18 | 只看该作者
楼主辛苦了,谢分享。
回复 支持 反对

使用道具 举报

13
发表于 2016-1-7 09:38:03 | 只看该作者
感谢楼主分享佳作
回复 支持 反对

使用道具 举报

14
发表于 2016-1-8 09:30:08 | 只看该作者

鄭培英【唱腔藝術精選(粵劇名家經典3-2)】專輯
多谢分享
回复 支持 反对

使用道具 举报

15
发表于 2016-1-16 03:52:09 | 只看该作者
谢谢谢谢感激感激
回复 支持 反对

使用道具 举报

您需要登录后才可以回帖 登录 | 注册会员

本版积分规则

Archiver|手机版|联系我们|风云音乐谷 ( 粤ICP备09098429号-2 )  

GMT+8, 2018-8-21 07:54 , Processed in 0.093506 second(s), 19 queries .

Powered by Discuz! X3.4

© 2001-2017 Comsenz Inc.

快速回复 返回顶部 返回列表