设为首页收藏本站

风云音乐谷

 找回密码
 注册会员

QQ登录

只需一步,快速开始

扫一扫,访问微社区


【揭露淘宝、微商卖U盘音乐、无损碟片15条惊天骗术】     【无损音乐下载、检测、使用、播放必备四步】

破解奥迪、途锐U盘播放wav、dts音乐方法 显示歌手和歌名的CD、DTS CD无损碟片制作教程 一键制作AC3 Audio DVD杜比音乐碟片
一键制作U盘(SD卡、TF卡)无损音乐教程 任何车型播放wav、flac、ape、dts无损音乐方法 一键制作DTS Audio DVD无损音乐碟片
一键批量抓取SACD光盘ISO镜像曲目的方法 一键制作世界最顶级的DVD Audio无损音乐碟片 一键制作WAV Audio DVD无损音乐碟片
U盘、碟片播放5.1环绕声dts音乐方法总结 一键制作U盘dts、wav、flac、ape视频音乐教程 一键制作DVD图片(视频)MV音乐碟片教程
查看: 1972|回复: 26

[粤剧辑] 【84670614原抓·WAV】郎荺玉【粵劇精英(經典唱腔名曲精選1-4)】專輯【百度網盤】

[复制链接]
发表于 2015-10-31 14:08:52 | 显示全部楼层 |阅读模式

这么精彩的内容,您还在等什么呢?马上注册风云音乐谷查看完整内容

您需要 登录 才可以下载或查看,没有帐号?注册会员

x

【自抓·WAV】郎荺玉【粵劇精英(經典唱腔名曲精選1-4)】專輯【百度網盤】

資源名稱:粵劇精英
藝術大師:郎荺玉
演奏樂隊:廣東粵劇院一團樂隊
資源來源:自購CD自抓
出版發行:中國唱片廣州公司
專輯曲目:
        01.仕林祭塔
        02.三娘汲水
        03.獄中歌

本資源保證是本人一手自抓,謝謝大家的欣賞!

郎荺玉【粵劇精英(經典唱腔名曲精選1-4)】封面_640.jpg
郎荺玉【粵劇精英(經典唱腔名曲精選1-4)】封底640.jpg
郎荺玉【粵劇精英(經典唱腔名曲精選1-4)】光碟-640.jpg
郎荺玉【粵劇精英(經典唱腔名曲精選1-4)】內圈-640.jpg
郎荺玉【粵劇精英(經典唱腔名曲精選1-4)】歌詞B_640.jpg
郎荺玉【粵劇精英(經典唱腔名曲精選1-4)】A_640.jpg
1.jpg
3.jpg
4.jpg
5.jpg
6.jpg
抓取日誌:
EAC 抓取日志文件从19. 七月 2013, 11:23 用于 CD
郎荺玉 / 仕林祭塔
使用驱动器  :TEAC    CD-W540E   Adapter: 0  ID: 1
读取模式    :不使用 C2,使用精确流, 禁用缓存的安全模式
读取偏移校正:686
读取 Lead-In 和 Lead-Out : 否
所用输出模式:内部 WAV 函数
                     44.100 Hz;16 Bit;立体声
其他选项    :
    用静音填充抓取中丢失偏移的采样 : 是
    去除首尾静音块 : 否
    Win NT 及 2000 本地 Win32 接口

范围状态及错误
已选择范围
     文件名 J:\84670614抓轨\郎荺玉【粵劇精英(經典唱腔名曲精選1-4)】專輯.wav
     峰值电平 95.8 %
     范围质量 100.0 %
     CRC D7E7A40F
     复制成功
没有错误发生
状态报告结尾

索引文件:
PERFORMER "郎荺玉"
TITLE "仕林祭塔"
FILE "玉【粵劇精英(經典唱腔名曲精選1-4)】專輯.wav" WAVE
  TRACK 01 AUDIO
    TITLE "仕林祭塔"
    PERFORMER "郎荺玉"
    INDEX 01 00:00:00
  TRACK 02 AUDIO
    TITLE "三娘汲水"
    PERFORMER "郎荺玉"
    INDEX 01 24:58:00
  TRACK 03 AUDIO
    TITLE "獄中歌"
    PERFORMER "郎荺玉"
    INDEX 01 40:38:00

下載地址:
游客,如果您要查看本帖隐藏内容请回复


解壓密碼
郎荺玉【粵劇精英(經典唱腔名曲精選1-4)】密碼.rar (171 Bytes, 下载次数: 75)
33.jpg

评分

参与人数 1威望积分 +500 风云金币 +5 收起 理由
爱的天堂 + 500 + 5 分享不易,加分支持

查看全部评分

回复

使用道具 举报

发表于 2015-10-31 16:18:45 | 显示全部楼层
楼主辛苦了,请继续,谢分享。
回复 支持 反对

使用道具 举报

发表于 2015-10-31 17:12:09 | 显示全部楼层
一下子得到这么多,呵呵,幸福!
回复 支持 反对

使用道具 举报

发表于 2015-11-1 09:20:02 | 显示全部楼层
谢谢楼主分享谢谢
回复 支持 反对

使用道具 举报

发表于 2015-11-1 17:55:20 | 显示全部楼层
要是楼主不将带文字的图片象素降低贴图,而是发在压缩包里,分享者就能看清文字了。
回复 支持 反对

使用道具 举报

发表于 2015-11-2 06:24:34 | 显示全部楼层
多谢楼主,耳福有你真不薄。
回复 支持 反对

使用道具 举报

发表于 2015-11-2 09:08:18 | 显示全部楼层
老界介谢谢楼主分享谢谢
回复 支持 反对

使用道具 举报

发表于 2015-11-2 10:23:52 | 显示全部楼层
楼主辛苦了,请继续,谢分享。
回复 支持 反对

使用道具 举报

发表于 2015-11-2 23:58:07 | 显示全部楼层
又多又好,就是顺序有点乱。
回复 支持 反对

使用道具 举报

发表于 2015-11-10 20:02:03 | 显示全部楼层
谢谢楼主的热心分享。
回复 支持 反对

使用道具 举报

发表于 2015-11-11 15:44:52 来自手机 | 显示全部楼层
多谢楼主分享,有你真好
回复 支持 反对

使用道具 举报

发表于 2015-11-23 22:26:56 | 显示全部楼层
下载听听多谢分享
回复 支持 反对

使用道具 举报

发表于 2015-11-28 14:57:16 | 显示全部楼层
还不错,感谢楼主提供分享!!
回复 支持 反对

使用道具 举报

发表于 2015-12-8 11:36:36 | 显示全部楼层
楼主辛苦了................
回复 支持 反对

使用道具 举报

发表于 2015-12-23 10:09:45 | 显示全部楼层
楼主辛苦了,请继续,谢分享。
回复 支持 反对

使用道具 举报

您需要登录后才可以回帖 登录 | 注册会员

本版积分规则

Archiver|手机版|联系我们|风云音乐谷 ( 粤ICP备09098429号-2 )  

GMT+8, 2018-6-23 09:02 , Processed in 0.096390 second(s), 23 queries .

Powered by Discuz! X3.4

© 2001-2017 Comsenz Inc.

快速回复 返回顶部 返回列表