设为首页收藏本站

风云音乐谷

 找回密码
 注册会员

QQ登录

只需一步,快速开始

扫一扫,访问微社区


【揭露淘宝、微商卖U盘音乐、无损碟片15条惊天骗术】     【无损音乐下载、检测、使用、播放必备四步】

破解奥迪、途锐U盘播放wav、dts音乐方法 显示歌手和歌名的CD、DTS CD无损碟片制作教程 一键制作AC3 Audio DVD杜比音乐碟片
一键制作U盘(SD卡、TF卡)无损音乐教程 任何车型播放wav、flac、ape、dts无损音乐方法 一键制作DTS Audio DVD无损音乐碟片
一键批量抓取SACD光盘ISO镜像曲目的方法 一键制作世界最顶级的DVD Audio无损音乐碟片 一键制作WAV Audio DVD无损音乐碟片
U盘、碟片播放5.1环绕声dts音乐方法总结 一键制作U盘dts、wav、flac、ape视频音乐教程 一键制作DVD图片(视频)MV音乐碟片教程
查看: 2974|回复: 30

[粤剧辑] [84670614自抓·WAV] 陳笑風【唱腔藝術精選(粵劇名家經典3-3)】專輯[百度網盤]

[复制链接]
发表于 2015-11-2 21:20:47 | 显示全部楼层 |阅读模式

这么精彩的内容,您还在等什么呢?马上注册风云音乐谷查看完整内容

您需要 登录 才可以下载或查看,没有帐号?注册会员

x
[自抓·WAV]陳笑風【唱腔藝術精選(粵劇名家經典3-3)】專輯[百度網盤]

資源名稱:陳笑風唱腔藝術精選
藝術大師:陳笑風
資源來源:自購CD自抓
出版發行:中唱广州公司
專輯曲目:
        01.江上琵琶
        02.唐明皇月殿重圓
        03.跨鳳乘龍
        04.還琴記

    本資源保證是本人一手自抓,壓縮包內有大圖若干,並添加了百分之三的恢復記錄。謝謝大家的欣賞!

陳笑風簡介:
資料來自百度,謹向原作者致謝!
    陈笑风(1926年-),,原名陈啸风,乳名阿瑛,东莞人,著名粤剧表演艺术家。他父亲为著名编剧家兼电影编导陈天纵。2他自创“风腔”,被称为“天皇小生”。广东东莞人,著名粤剧表演艺术家。他的表演戏路宽广、文武兼备、俊逸潇洒、传神逼真;他的唱腔别具一格,抑扬委婉、奔放流畅、声情并茂、创造了著名的“风腔”流派,享有“天皇小生”的美誉。
陈笑风他自创“风腔”,  陈笑风作品
被称为“天皇小生”。陈笑风出身自粤剧世家,父亲为著名编剧家兼电影编导陈天纵,曾编写马师曾的戏宝《贼王子》、《冷面皇夫》等剧本。陈笑风年少时候在广东大学念土本工程系,后来才他父亲所主持的歌坛任音乐员。不久转学粤剧表演。1944年,得到了男花旦吴惜衣的赏识。1946年,开始在香港的戏班担任小生。50年代,他曾经跟随戏班远赴越南、新加坡、马来西亚表演。
在新加坡表演的时候认识了他太太梁瑞冰-名伶“奔纲冰”。后来,他带他的妹妹陈小茶加入粤剧成为花旦,也跟妹妹陈小华合组戏班。
    他的首本戏有《山伯临终》、《大漠英雄》、《王大儒供状》、《刺目劝夫》、《胡二卖仔》、《人面桃花》、《枇杷门巷》、《梁祝恨史》、《红楼梦》之“宝玉与黛玉”等等。他收徒谨慎,只公开承认收了郑少秋一人为徒。1986年退休,移居美国纽约。2006年,他更与广东省政协、南方广播影视传媒集团、广东电视台、南方电视台主办、广东省文化厅、广州市文化局合作制作《优秀粤剧粤曲艺术大观》之“陈笑风专辑”。
舞台上嘅天鹅绒幕布徐徐拉开,观众席鸦雀无声,“风腔”艺术专场《山伯临终》开始嘞。
一阵开场锣鼓,只见身着白色海青,头扎白布水发嘅梁山伯,迈住沉实嘅步伐,面露悲伤而绝望嘅神情,一步步向台中走去。走到台中,梁山伯挪右脚往前轻轻踏咗一步,身体左右轻摇晃咗一下亮相,同锣鼓“嚓”嘅一声配合得天衣无缝,呢一下就交待咗梁山伯重病在身同埋悲愤嘅心情。呢个时候,佢轻反水袖,缓缓啖起唱打引:“人世无缘同到老,楼台一别两吞声……(反线二王板面)泪似廉外雨,点滴到天明。空房冷冰冰,山伯孤零零。刻骨相思唯有病,一腔恨怨解不胜。梁兄唤你千声不应。(反线二王)好同窗……”一个二王长腔,由强到弱再由弱到强,佢唱得委婉动听,声随情转,顿挫分明。
唱到“选婿重金龟”一句,佢加重咗用气,显示出梁山伯嘅愤;“拒婚嫌薄聘”时,佢收窄咗声线,用气息嚟处理唱腔,表现出梁山伯嘅怨。啖样处理,比用高亢嘅长腔更能表现人物,更有说服力,更引人同情。因为梁山伯系文弱书生,佢内心悲大于愤,同祝英台有缘无份,面对强权,开始觉得无奈,“争无计眼看马家郎,隔绝了卿卿”。
最精彩系尾段:从骂、恨、哭、到一写而绝命,佢嘅表演由悲泪盈眶到泪如泉涌,双手发抖,脚步跄踉。唱到激动嘅时候,将双水袖向上一扬,一个仰天长叹既造型,将一个文弱书生既无奈表露无遗。“我梁山伯,我梁山伯到死不忘情!”佢唱完呢句,忽然一个转身倒伏床上。舞台上追光灯照住梁山伯,一幅凄凉临终图呈现眼前……
现场一片寂静,剧终,观众如梦初醒,从悲痛嘅情绪反应过来,抹住泪,用热烈嘅掌声感谢带畀佢哋艺术享受嘅偶像--演梁山伯嘅陈笑风。
    陈笑风系饮誉海内外嘅著名粤剧表演艺术家,佢演出咗好多著名剧目《朱弁回朝》、《六号门》、《大漠英雄》、《梁祝恨史》等,从初出茅庐到耄耋之年,从艺半个世纪以嚟,佢用数百出粤剧大戏成就咗“天王小生”嘅美誉,喺舞台上塑造咗各种个性鲜明嘅人物形象,畀观众留低深刻印象。佢开创嘅“风腔”流派,为粤剧艺术留低咗宝贵嘅财富。
讲到“风腔”嘅特点,陈笑风话:“风腔”主要体现喺发口上边,唱嘅时候要控制音色,吐字咬字同形腔嘅时候,要有字重于腔嘅习惯,唱腔系从弱到强再到弱嘅唱法,气息要控制得收放自如,易学难精哦。

陈笑风作品
    陈笑风原名陈拔英,生于1925年,父亲是薛马时代的著名编剧家陈天纵。少年时代于广州攻读土木工程,后投身梨园,专攻文武生几年间当上正印,名声大嘈。他长期于国内剧团工作,演出了很多著名剧目如《朱弁回朝》、《六号门》等。演出着重人物内心感情和性格的细腻刻画,一步一指,一个关目,一个做手,都能表现出剧中人的思想感情和处境,且恰到好处。他的唱腔更共鸣和谐,悦耳动听,演唱讲求与剧情配合,能随剧中人的思想感情转变作出变化,投入真挚。陈笑风曾担任广东粤剧院一、二、三团、广州粤剧团的正、副团长,又对院中演员作出不少教导,帮助培育新人。他还能导演粤剧,设计唱腔,真是一位粤剧宗师。 陈笑风身穿一件银色长衫,围了条白颈巾,穿一双黑皮鞋,精神焕发地行到台中央。他说自一九九二年开始,已为香港灵实**教协会做了无数慈善经费筹募工作。他经常到灵实的不同服务单位,探望老人,为他们带来温暖。他又和名伶盖鸣晖、陈好逑、林锦屏、倪惠英、曹秀琴等灌唱片,为灵实**教协会筹钱。这几年,他走遍欧洲各大城市,在当地向侨胞推介灵实的慈善服务,并以演唱来呼吁募捐,帮助灵实医院运作,可谓极热心于服务社会。司仪在介绍陈笑风时,说道他今天是捱着腰骨痛来演出。我想这是温哥华湿寒天气所做成的。我也在想,为什么他要捱着腰骨痛来演出。为什么一个七十多岁的长者,不坐在家看电视,打牌,休息,要跑出来,跑过一个太平洋来演出。为什么一个大老倌,要放下大老倌的尊严地位,四出为大众服务。这全因一个爱心,不计报酬为社会服务。
陈笑风演唱《山伯临终》。《山伯临终》是陈笑风的首本,演唱起来一定驾轻就熟。一阵开幕锣鼓,只见身穿银色长衫的他,带着较沉实的步伐,面露悲伤而绝望的神情,一步步的往台中走去,充分表现出梁山伯在剧中悲伤但无奈的心情。刚走到台中央的梁山伯,挪右脚往前轻轻地踏了一步,就是这一步,潇洒、爽快而沉实的一步,和锣鼓“查”的一声配合得天衣无缝,准得无可在准。这一踏看来是轻描淡写、自然非常,实是藏着五十多年的舞台功架,无数舞台经验累积而成的一踏。再往前踏了两步,锣鼓打完了。梁山伯右手轻握拳放在鼻子前伤感地吸了一口气,缓缓地起唱打引:“人世无缘同到老,楼台一别两吞声、、、、、[反线二王板面]:泪似廉外雨,点滴到天明。空房冷冰冰,山伯孤零零。刻骨相思唯有病,一腔恨怨解不胜。梁兄唤你千声不应。[反线二王]:好同窗、、、、、
回味无穷
    他唱得委婉动听,顿挫分明,而且声随情转,好象唱到“选婿重金龟”一句,他加重了用气,显出梁山伯的愤;“拒婚嫌薄聘”时他收紧一点声线,表现出梁山伯的怨。他不会用“打拆锣”的声或尖声高音去表达愤怨,因为梁山伯的形象是文书生,不是什么大汉,虽愤也不会发出什么火,他要演的,我想是想发火但又发不出,很快又被从心涌出的与祝英台有缘无份的悲哀所掩盖,开始觉得无奈“争无计眼看马家郎、、、”,空有线坠和绣帕,渐渐变成了绝望。最精彩是尾段:从骂、恨、哭、到一写而绝命,陈笑风都能在唱腔上充分的表现出来,所以我觉得他表演的很好很好。陈笑风这次演唱十分投入,在唱到中段,已开始悲伤得要哭一样。唱到“二流”时,他要拿出手巾擦鼻涕。在最后写诗时,他利用锣鼓时间背转身来抹,真是投入。一曲唱罢,令人回味无穷。
陈笑风和白雪红合唱《朱弁回朝》之寒江伤别。这对殿堂级的组合真是难得。陈笑风的演唱风格跟方才演唱《山伯临终》时又是另一种了。他一开腔就时爽朗精神,荡气回肠,现出了能尝回国之愿的兴奋。自诉心底话到后来转为难舍宫主,到忍痛与宫主结为兄妹,两位都于唱腔和表情上表达得很清晰,投入。曲的尾声,一曲《江河水》,诉尽他俩矛盾复杂的情思。这是在听过任白录音的《李后主去国归降》以后,另一首用“震撼”两字来形容的歌曲。陈笑风先生的表演艺术让人尊敬,同时他的善心也一样使人尊敬。
陳笑風【唱腔藝術精選(粵劇名家經典3-3)】封面_副本.jpg
陳笑風【唱腔藝術精選(粵劇名家經典3-3)】封底_副本.jpg
陳笑風【唱腔藝術精選(粵劇名家經典3-3)】光碟_副本.jpg
001.JPG
002.JPG
003.JPG
004.JPG
抓取日誌:
EAC 抓取日志文件从18. 八月t 2013, 12:37 用于 CD
陳笑風 / 唱腔藝術精選(粵劇名家經典3-3)
使用驱动器  :SONY    DVD-ROM DDU1621   Adapter: 0  ID: 0
读取模式    :不使用 C2,使用精确流, 禁用缓存的安全模式
读取偏移校正:594
读取 Lead-In 和 Lead-Out : 否
所用输出模式:内部 WAV 函数
                     44.100 Hz;16 Bit;立体声
其他选项    :
    用静音填充抓取中丢失偏移的采样 : 是
    去除首尾静音块 : 否
    Win NT 及 2000 本地 Win32 接口

范围状态及错误
已选择范围
     文件名 J:\84670614抓轨\陳笑風唱腔藝術精選(粵劇名家經典3-3).wav
     峰值电平 100.0 %
     范围质量 99.9 %
     CRC EC9B56DA
     复制成功
没有错误发生
状态报告结尾

索引文件:
PERFORMER "陳笑風"
TITLE "唱腔藝術精選(粵劇名家經典3-3)"
FILE "陳笑風唱腔藝術精選(粵劇名家經典3-3).wav" WAVE
  TRACK 01 AUDIO
    TITLE "江上琵琶"
    PERFORMER "陳笑風"
    INDEX 01 00:00:00
  TRACK 02 AUDIO
    TITLE "唐明皇月殿重圓"
    PERFORMER "陳笑風"
    INDEX 01 25:14:00
  TRACK 03 AUDIO
    TITLE "跨鳳乘龍"
    PERFORMER "陳笑風"
    INDEX 01 35:04:00
  TRACK 04 AUDIO
    TITLE "還琴記"
    PERFORMER "陳笑風"
    INDEX 01 48:39:00

下載地址:
游客,如果您要查看本帖隐藏内容请回复

解壓密碼:
陳笑風【唱腔藝術精選(粵劇名家經典3-3)】密碼.rar (183 Bytes, 下载次数: 60)

评分

参与人数 1威望积分 +500 风云金币 +5 收起 理由
爱的天堂 + 500 + 5 分享不易,加分支持

查看全部评分

回复

使用道具 举报

发表于 2015-11-2 21:32:39 | 显示全部楼层
十分多谢您的资源,难得的无私上传,谢分享。
回复 支持 反对

使用道具 举报

 楼主| 发表于 2015-11-2 21:42:12 | 显示全部楼层
gzzwsy 发表于 2015-11-2 21:32
十分多谢您的资源,难得的无私上传,谢分享。

唔駛客氣!
回复 支持 反对

使用道具 举报

发表于 2015-11-2 22:19:38 | 显示全部楼层
个人感觉,还是合唱的好听。
回复 支持 反对

使用道具 举报

发表于 2015-11-2 23:24:36 | 显示全部楼层
陈笑风唱的很不错,谢谢分享。
回复 支持 反对

使用道具 举报

发表于 2015-11-3 09:03:47 | 显示全部楼层



好曲多谢楼主分享!!!
回复 支持 反对

使用道具 举报

发表于 2015-11-3 09:12:36 | 显示全部楼层
多谢楼主分享!!!好听。
回复 支持 反对

使用道具 举报

发表于 2015-11-3 16:44:40 | 显示全部楼层
经典收藏!谢谢分享
回复 支持 反对

使用道具 举报

发表于 2015-11-5 20:13:23 | 显示全部楼层
陈笑风(1926年-),广东东莞人,著名粤剧表演艺术家。原名陈啸风,乳名阿瑛,东莞人,著名粤剧表演艺术家。他父亲为著名编剧家兼电影编导陈天纵。2他自创“风腔”,被称为“天皇小生”。
回复 支持 反对

使用道具 举报

发表于 2015-11-5 20:32:42 | 显示全部楼层
可惜了,陈笑风的高质量录音太少,风头完全被文千岁盖过了。
回复 支持 反对

使用道具 举报

 楼主| 发表于 2015-11-6 13:36:06 | 显示全部楼层
轻舟 发表于 2015-11-5 20:32
可惜了,陈笑风的高质量录音太少,风头完全被文千岁盖过了。


最欣赏他的《锦江诗侣》
回复 支持 反对

使用道具 举报

发表于 2015-11-10 19:50:16 | 显示全部楼层
谢谢楼主的热心分享。
回复 支持 反对

使用道具 举报

发表于 2015-11-11 15:49:20 来自手机 | 显示全部楼层
多谢楼主分享,好资源
回复 支持 反对

使用道具 举报

发表于 2015-11-28 15:38:28 | 显示全部楼层
试听感觉音乐非常好,谢谢楼主奉献。
回复 支持 反对

使用道具 举报

发表于 2015-12-25 13:20:32 | 显示全部楼层
经典收藏!谢谢分享
回复 支持 反对

使用道具 举报

您需要登录后才可以回帖 登录 | 注册会员

本版积分规则

Archiver|手机版|联系我们|风云音乐谷 ( 粤ICP备09098429号-2 )  

GMT+8, 2018-8-15 03:48 , Processed in 0.101577 second(s), 20 queries .

Powered by Discuz! X3.4

© 2001-2017 Comsenz Inc.

快速回复 返回顶部 返回列表