设为首页收藏本站

风云音乐谷

 找回密码
 注册会员

QQ登录

只需一步,快速开始

扫一扫,访问微社区


【揭露淘宝、微商卖U盘音乐、无损碟片15条惊天骗术】     【无损音乐下载、检测、使用、播放必备四步】

破解奥迪、途锐U盘播放wav、dts音乐方法 显示歌手和歌名的CD、DTS CD无损碟片制作教程 一键制作AC3 Audio DVD杜比音乐碟片
一键制作U盘(SD卡、TF卡)无损音乐教程 任何车型播放wav、flac、ape、dts无损音乐方法 一键制作DTS Audio DVD无损音乐碟片
一键批量抓取SACD光盘ISO镜像曲目的方法 一键制作世界最顶级的DVD Audio无损音乐碟片 一键制作WAV Audio DVD无损音乐碟片
U盘、碟片播放5.1环绕声dts音乐方法总结 一键制作U盘dts、wav、flac、ape视频音乐教程 一键制作DVD图片(视频)MV音乐碟片教程
查看: 4109|回复: 49

[粤剧辑] 【84670614原抓·WAV】羅家寶【粵劇精英(經典唱腔名曲精選1-1)】專輯【百度網盤】

  [复制链接]
发表于 2015-11-3 06:52:31 | 显示全部楼层 |阅读模式

这么精彩的内容,您还在等什么呢?马上注册风云音乐谷查看完整内容

您需要 登录 才可以下载或查看,没有帐号?注册会员

x
【自抓·WAV】羅家寶【粵劇精英(經典唱腔名曲精選1-1)】專輯【百度網盤】

資源名稱:粵劇精英
藝術大師:羅家寶+林小群
演奏樂隊:廣東粵劇院一團樂隊
資源來源:自購CD自抓
出版發行:中國唱片廣州公司
專輯曲目:
        01.祭玉河
        02.柳搖金
        03.石牢詠
        04.答假問訴衷情
羅家寶簡介:資料來自百度,多謝原作者!
    羅家寶,粵劇表演藝術家。生於 1930 年,順德人,父親羅家樹是著名的掌板師傅,叔父羅家權是著名的粵劇演員,香港粵劇演藝名人羅家英是他的堂兄弟。羅家寶自幼生於戲劇世家,從小受到了粵劇的薰陶,對前輩藝人薛覺先、白玉堂、桂名揚等名家的表演和演唱特色很有心得,顧集取各家之長,並結合個人的聲音條件,創造了獨樹一幟好聽好唱的 “蝦腔” 。
    “ 蝦腔 ” 聲色渾厚甜潤,尤其是中低音區域音質厚實,共鳴強烈,行腔不事雕飾但極具堂皇華采,高音區域雖然非其所長,但他能根據本身聲線特點,發展出一套跌宕有致 。因其小名 “ 亞蝦 ” , “ 蝦哥 ” 、 “ 蝦腔 ” 之名由此而來。羅家寶的表演精湛洗煉,儒雅溫文,風流倜儻。並被譽為 “ 小生王 ” 。首本名劇《柳毅傳書》曆演不衰。
**十年後,他從小生轉攻官生,飾演了《血濺烏紗》中的清官嚴天民、《袁崇煥》中的主帥袁崇煥、《夢斷香銷四十年》中的詩人陸游,在粵劇人物長廊裏塑造了一個又一個深刻的藝術形象。 2002 年元旦的粵劇新年盛會上,羅家寶獲得了廣東省所授予的粵劇“ 突出成就獎 ” 。叱吒了舞臺整整一個甲子的羅家寶在 2002 年 11 月成功地舉辦了 “ 從藝 60 年粵劇藝術系列活動 ” ,包括巡迴演出、推出個人自傳錄、個人曲集、藝術展覽和藝術研討會。在社會上得到了很大的反響。 代表作品:粵劇《柳毅傳書》、《袁崇煥》、《夢斷香銷四十年》、《牡丹亭》、和現代戲《山鄉風雲》、《爭兒記》、《亂世姻緣》等。藝術成就評價:首創粵劇“蝦腔”,成為當今粵劇主要唱腔流派之一。
    《粵劇精英景點唱腔名曲精選1》粵劇又稱大戲或者廣東大戲,源自南戲,自明朝嘉靖年間開始在廣東、廣西出現,是揉合唱做念打、樂師配樂、戲臺服飾、抽象形體等等的表演藝術。最初演出的語言是中原音韻,又稱為戲棚官話。到了清朝末期,文化人為了方便宣揚**而把演唱語言改為粵語,使廣州人更容易明白。粵劇名列於2006年5月20日公佈的第一批518項國家級非物質文化遺產名錄之內。粵劇流行於廣東、廣西、臺灣和港澳。在新加坡、馬來西亞、越南、緬甸、柬埔寨、菲律賓、印尼、澳大利亞、美國、加拿大、墨西哥、古巴以及中南美洲等有廣東華僑聚居的地區,都有粵劇的演出。粵劇是融匯明清以來流入廣東的海鹽、弋陽、昆山、梆子等諸腔並吸收珠江三角洲的民間音樂所形成的以梆子(京劇稱西皮)、二黃為主的我國南方一大劇種。

    本資源屬原碟自抓,單單資源抓軌就用了68分鐘,上傳更不易(每秒只得20~38KB左右),請勿轉載其它論壇,謝謝欣賞!
羅家寶【粵劇精英(經典唱腔名曲精選1-1)】封面_640.jpg
羅家寶【粵劇精英(經典唱腔名曲精選1-1)】封底640.jpg
羅家寶【粵劇精英(經典唱腔名曲精選1-1)】光碟_640.jpg
羅家寶【粵劇精英(經典唱腔名曲精選1-1)】內圈_640.jpg
羅家寶【粵劇精英(經典唱腔名曲精選1-1)】歌詞A_640.jpg
羅家寶【粵劇精英(經典唱腔名曲精選1-1)】歌詞B_640.jpg
1.jpg
2.jpg
3.jpg
4.jpg
6.jpg
抓取日誌:
EAC 抓取日志文件从16. 七月 2013, 19:32 用于 CD
羅家寶 / 粵劇精英(經典唱腔名曲精選1-1)
使用驱动器  :TEAC    CD-W540E   Adapter: 0  ID: 1
读取模式    :不使用 C2,使用精确流, 禁用缓存的安全模式
读取偏移校正:686
读取 Lead-In 和 Lead-Out : 否
所用输出模式:内部 WAV 函数
                     44.100 Hz;16 Bit;立体声
其他选项    :
    用静音填充抓取中丢失偏移的采样 : 是
    去除首尾静音块 : 否
    Win NT 及 2000 本地 Win32 接口

范围状态及错误
已选择范围
     文件名 J:\84670614抓轨\羅家寶【粵劇精英(經典唱腔名曲精選1-1)】專輯\羅家寶【粵劇精英(經典唱腔名曲精選1-1)】專輯.wav
     峰值电平 100.0 %
     范围质量 99.9 %
     CRC 21CECCE8
     复制成功
没有错误发生
状态报告结尾

索引文件:
PERFORMER "羅家寶"
TITLE "粵劇精英(經典唱腔名曲精選1-1)"
FILE "羅家寶【粵劇精英(經典唱腔名曲精選1-1)】專輯.wav" WAVE
  TRACK 01 AUDIO
    TITLE "祭玉河"
    PERFORMER "羅家寶"
    FLAGS DCP
    INDEX 01 00:00:00
  TRACK 02 AUDIO
    TITLE "柳搖金"
    PERFORMER "羅家寶"
    FLAGS DCP
    INDEX 00 19:32:62
    INDEX 01 19:37:71
  TRACK 03 AUDIO
    TITLE "石牢詠"
    PERFORMER "羅家寶"
    FLAGS DCP
    INDEX 00 24:03:44
    INDEX 01 24:08:53
  TRACK 04 AUDIO
    TITLE "答假問訴衷情"
    PERFORMER "羅家寶"
    FLAGS DCP
    INDEX 00 39:55:25
    INDEX 01 40:00:34

下載地址:
游客,如果您要查看本帖隐藏内容请回复

解壓密碼:
粵劇精英(經典唱腔名曲精選1-1)密碼.rar (156 Bytes, 下载次数: 122)

评分

参与人数 1威望积分 +500 风云金币 +5 收起 理由
爱的天堂 + 500 + 5 分享不易,加分支持

查看全部评分

回复

使用道具 举报

 楼主| 发表于 2015-11-3 06:57:52 | 显示全部楼层
還有多張專輯,周六掃描、抓軌、上傳,下週再繼續了。
回复 支持 反对

使用道具 举报

发表于 2015-11-3 08:25:36 | 显示全部楼层
老界介谢谢楼主分享.
回复 支持 反对

使用道具 举报

发表于 2015-11-3 09:04:58 | 显示全部楼层



好曲多谢楼主分享!!!
回复 支持 反对

使用道具 举报

发表于 2015-11-3 09:07:49 | 显示全部楼层
多谢楼主分享!!!
回复 支持 反对

使用道具 举报

发表于 2015-11-3 12:48:48 | 显示全部楼层
祭玉河一直都是喜欢伍永佳的,不知罗家宝的如何?
回复 支持 反对

使用道具 举报

发表于 2015-11-3 13:02:00 | 显示全部楼层
谢过楼主又有新资源发布了。
回复 支持 反对

使用道具 举报

发表于 2015-11-3 16:40:13 | 显示全部楼层
太难得的资源,完美音质的再现,谢谢楼主的分享!
回复 支持 反对

使用道具 举报

发表于 2015-11-5 20:10:49 | 显示全部楼层
楼主把羅家寶的这一套戏曲发得很全,谢谢了!
回复 支持 反对

使用道具 举报

发表于 2015-11-5 20:47:09 | 显示全部楼层
上傳更不易(每秒只得20~38KB左右)

上存速度怎么这么慢?就算是4m网络,也有几百k才对啊。
要认真找找是哪方面的原因。
回复 支持 反对

使用道具 举报

发表于 2015-11-6 05:56:22 | 显示全部楼层
谢谢楼主的热心分享。
回复 支持 反对

使用道具 举报

 楼主| 发表于 2015-11-6 06:59:04 来自手机 | 显示全部楼层
轻舟 发表于 2015-11-5 20:47
上傳更不易(每秒只得20~38KB左右)

上存速度怎么这么慢?就算是4m网络,也有几百k才对啊。

早上好!
我的是8m网络, 上传最快时得45k。下载就快些, 晨早就有700k。平时得400左右!
10.jpg
回复 支持 反对

使用道具 举报

 楼主| 发表于 2015-11-6 07:05:59 来自手机 | 显示全部楼层
轻舟 发表于 2015-11-5 20:47
上傳更不易(每秒只得20~38KB左右)

上存速度怎么这么慢?就算是4m网络,也有几百k才对啊。

这场大戏的上下碟我已重新抓轨, 但是一样的。上传中, 就是太慢了, 一上传就网页都打不开了!电脑是新装的!
12.jpg
回复 支持 反对

使用道具 举报

 楼主| 发表于 2015-11-6 08:08:40 来自手机 | 显示全部楼层
轻舟 发表于 2015-11-5 20:47
上傳更不易(每秒只得20~38KB左右)

上存速度怎么这么慢?就算是4m网络,也有几百k才对啊。

请问能如何解决?
回复 支持 反对

使用道具 举报

发表于 2015-11-6 12:58:27 | 显示全部楼层
谢谢楼主分享谢谢
回复 支持 反对

使用道具 举报

您需要登录后才可以回帖 登录 | 注册会员

本版积分规则

Archiver|手机版|联系我们|风云音乐谷 ( 粤ICP备09098429号-2 )  

GMT+8, 2018-8-15 20:26 , Processed in 0.116075 second(s), 20 queries .

Powered by Discuz! X3.4

© 2001-2017 Comsenz Inc.

快速回复 返回顶部 返回列表