设为首页收藏本站

风云音乐谷

 找回密码
 注册会员

QQ登录

只需一步,快速开始

扫一扫,访问微社区


【揭露淘宝、微商卖U盘音乐、无损碟片15条惊天骗术】     【无损音乐下载、检测、使用、播放必备四步】

破解奥迪、途锐U盘播放wav、dts音乐方法 显示歌手和歌名的CD、DTS CD无损碟片制作教程 一键制作AC3 Audio DVD杜比音乐碟片
一键制作U盘(SD卡、TF卡)无损音乐教程 任何车型播放wav、flac、ape、dts无损音乐方法 一键制作DTS Audio DVD无损音乐碟片
一键批量抓取SACD光盘ISO镜像曲目的方法 一键制作世界最顶级的DVD Audio无损音乐碟片 一键制作WAV Audio DVD无损音乐碟片
U盘、碟片播放5.1环绕声dts音乐方法总结 一键制作U盘dts、wav、flac、ape视频音乐教程 一键制作DVD图片(视频)MV音乐碟片教程
查看: 3033|回复: 45

[粤剧辑] 【自抓·WAV】红线女【粤曲粤剧唱腔精选之大江东去】專輯【百度網盤】

  [复制链接]
发表于 2015-11-18 06:04:44 | 显示全部楼层 |阅读模式

这么精彩的内容,您还在等什么呢?马上注册风云音乐谷查看完整内容

您需要 登录 才可以下载或查看,没有帐号?注册会员

x
本帖最后由 84670614 于 2015-11-18 10:24 编辑

【自抓·WAV】红线女【粤曲粤剧唱腔精选之大江东去】專輯【百度網盤】
資源名稱:粤曲粤剧唱腔精选
藝術大師:紅線女
資源來源:自購CD自抓
出版發行:中國唱片廣州公司
專輯曲目:
REM DISCID 1C0A4C03
REM COMMENT "ExactAudioCopy v0.99pb4"
PERFORMER "红线女"
TITLE "粤曲粤剧唱腔精选之大江东去"
FILE "红线女 - 粤曲粤剧唱腔精选之大江东去.wav" WAVE
  TRACK 01 AUDIO
    TITLE "大江东去"
    PERFORMER "红线女"
    FLAGS DCP
    INDEX 01 00:00:00
  TRACK 02 AUDIO
    TITLE "栖凤楼"
    PERFORMER "红线女"
    FLAGS DCP
    INDEX 00 03:09:69
    INDEX 01 03:11:69
  TRACK 03 AUDIO
    TITLE "青衫红泪影"
    PERFORMER "红线女"
    FLAGS DCP
    INDEX 00 30:27:21
    INDEX 01 30:29:21

抓軌日誌
Exact Audio Copy V0.99 prebeta 4 from 23. January 2008
EAC 抓取日志文件从14. 十一月 2015, 11:28
红线女 / 粤曲粤剧唱腔精选之大江东去
使用驱动器  :PLDS    DVDROM DH16D7SH   Adapter: 2  ID: 0
读取模式 : 快速
读取偏移校正                   : 0
读取 Lead-In 和 Lead-Out       : 否
用静音填充抓取中丢失偏移的采样 : 是
去除首尾静音块                 : 否
在 CRC 计算中使用了空样本      : 否
已用接口                       : Win NT 及 2000 本地 Win32 接口
所用输出格式 : 内部 WAV 函数
样本格式     : 44.100 Hz;16 Bit;立体声

被抓轨 CD 的 TOC
     音轨 |   开始   |   长度   | 起始扇区 | 结尾扇区
    --------------------------------------------------
       1  |  0:00.00 |  3:11.69 |       0  |   14393  
       2  |  3:11.69 | 27:17.27 |   14394  |  137195  
       3  | 30:29.21 | 13:27.15 |  137196  |  197735  

范围状态及错误
已选择范围
     文件名 C:\84670614抓轨专用文件夹\红线女 - 粤曲粤剧唱腔精选之大江东去.wav
     峰值电平 100.0 %
     复制 CRC 712F3429
     复制成功
没有错误发生
状态报告结尾

封套
红线女 - 粤曲粤剧唱腔精选 封套1_1.jpg
红线女 - 粤曲粤剧唱腔精选 封套2_1.jpg
CD_副本.jpg

游客,如果您要查看本帖隐藏内容请回复

解壓密碼
粤曲粤剧唱腔精选之大江东去 - 密码.rar (151 Bytes, 下载次数: 117)

评分

参与人数 1威望积分 +500 风云金币 +5 收起 理由
爱的天堂 + 500 + 5 分享不易,加分支持

查看全部评分

回复

使用道具 举报

发表于 2015-11-18 08:36:02 | 显示全部楼层
这个下载失效的哦  大江东去 可能是百度网盘的敏感词,下载文件名改一下应该可以
回复 支持 反对

使用道具 举报

 楼主| 发表于 2015-11-18 10:08:54 | 显示全部楼层
本帖最后由 84670614 于 2015-11-18 18:07 编辑
爱的天堂 发表于 2015-11-18 08:36
这个下载失效的哦  大江东去 可能是百度网盘的敏感词,下载文件名改一下应该可以


好的,改了文件名, 可以了!

您好:補上log
大江东去log.rar (825 Bytes, 下载次数: 7)
回复 支持 反对

使用道具 举报

发表于 2015-11-18 10:25:15 | 显示全部楼层
谢谢楼主分享谢谢
回复 支持 反对

使用道具 举报

发表于 2015-11-18 10:30:37 | 显示全部楼层
老界介谢谢楼主分享
回复 支持 反对

使用道具 举报

发表于 2015-11-18 11:37:01 | 显示全部楼层
每天都有新资料,正!先谢了。
回复 支持 反对

使用道具 举报

发表于 2015-11-18 15:11:25 | 显示全部楼层
新鲜出炉,多谢楼主无私分享。
回复 支持 反对

使用道具 举报

发表于 2015-11-18 16:07:46 | 显示全部楼层
最期待的是《潞安州》
回复 支持 反对

使用道具 举报

发表于 2015-11-18 19:04:09 | 显示全部楼层
谢楼主分享红线女【粤曲粤剧唱腔精选之大江东去】專輯【
回复 支持 反对

使用道具 举报

发表于 2015-11-18 20:57:26 | 显示全部楼层
没有曲名的啊?!
回复 支持 反对

使用道具 举报

发表于 2015-11-18 21:19:29 | 显示全部楼层
谢谢分享,谢谢分享。
回复 支持 反对

使用道具 举报

 楼主| 发表于 2015-11-18 22:31:21 来自手机 | 显示全部楼层
pdk1965 发表于 2015-11-18 20:57
没有曲名的啊?!

不会吧?请睇清楚啲。
回复 支持 反对

使用道具 举报

发表于 2015-11-19 14:21:35 | 显示全部楼层
谢谢楼主分享谢谢
回复 支持 反对

使用道具 举报

发表于 2015-11-19 20:46:22 | 显示全部楼层
都是女姐的成名作品,值得收藏。谢谢分享。
回复 支持 反对

使用道具 举报

发表于 2015-11-21 11:37:23 | 显示全部楼层
回复欣赏,感谢分享。
回复 支持 反对

使用道具 举报

您需要登录后才可以回帖 登录 | 注册会员

本版积分规则

Archiver|手机版|联系我们|风云音乐谷 ( 粤ICP备09098429号-2 )  

GMT+8, 2018-7-17 22:51 , Processed in 0.091175 second(s), 21 queries .

Powered by Discuz! X3.4

© 2001-2017 Comsenz Inc.

快速回复 返回顶部 返回列表