设为首页收藏本站

风云音乐谷

 找回密码
 注册会员

QQ登录

只需一步,快速开始

扫一扫,访问微社区


【揭露淘宝、微商卖U盘音乐、无损碟片15条惊天骗术】     【无损音乐下载、检测、使用、播放必备四步】

破解奥迪、途锐U盘播放wav、dts音乐方法 显示歌手和歌名的CD、DTS CD无损碟片制作教程 一键制作AC3 Audio DVD杜比音乐碟片
一键制作U盘(SD卡、TF卡)无损音乐教程 任何车型播放wav、flac、ape、dts无损音乐方法 一键制作DTS Audio DVD无损音乐碟片
一键批量抓取SACD光盘ISO镜像曲目的方法 一键制作世界最顶级的DVD Audio无损音乐碟片 一键制作WAV Audio DVD无损音乐碟片
U盘、碟片播放5.1环绕声dts音乐方法总结 一键制作U盘dts、wav、flac、ape视频音乐教程 一键制作DVD图片(视频)MV音乐碟片教程
查看: 3034|回复: 40
打印 上一主题 下一主题

[粤剧辑] 【自抓·WAV】红线女【粤曲粤剧唱腔精选之平湖秋月】專輯【百度網盤】

  [复制链接]
跳转到指定楼层
1
发表于 2015-11-17 20:28:18 | 只看该作者 回帖奖励 |倒序浏览 |阅读模式

这么精彩的内容,您还在等什么呢?马上注册风云音乐谷查看完整内容

您需要 登录 才可以下载或查看,没有帐号?注册会员

x
【自抓·WAV】红线女【粤曲粤剧唱腔精选之平湖秋月】專輯【百度網盤】
資源名稱:粤曲粤剧唱腔精选
藝術大師:紅線女
資源來源:自購CD自抓
出版發行:中國唱片廣州公司
專輯曲目:
REM DISCID 4A0AE406
REM COMMENT "ExactAudioCopy v0.99pb4"
PERFORMER "红线女"
TITLE "粤曲粤剧唱腔精选之平湖秋月"
FILE "红线女 - 粤曲粤剧唱腔精选之平湖秋月.wav" WAVE
  TRACK 01 AUDIO
    TITLE "平湖秋月"
    PERFORMER "红线女"
    FLAGS DCP
    INDEX 01 00:00:00
  TRACK 02 AUDIO
    TITLE "拷红"
    PERFORMER "红线女"
    FLAGS DCP
    INDEX 00 03:15:52
    INDEX 01 03:17:52
  TRACK 03 AUDIO
    TITLE "沉醉东风"
    PERFORMER "红线女"
    FLAGS DCP
    INDEX 00 06:20:25
    INDEX 01 06:22:25
  TRACK 04 AUDIO
    TITLE "打神"
    PERFORMER "红线女"
    FLAGS DCP
    INDEX 00 10:46:42
    INDEX 01 10:48:42
  TRACK 05 AUDIO
    TITLE "守楼"
    PERFORMER "红线女"
    FLAGS DCP
    INDEX 00 23:32:57
    INDEX 01 23:34:57
  TRACK 06 AUDIO
    TITLE "情探"
    PERFORMER "红线女"
    FLAGS DCP
    INDEX 00 40:32:10
    INDEX 01 40:34:10

抓取日誌
Exact Audio Copy V0.99 prebeta 4 from 23. January 2008
EAC 抓取日志文件从14. 十一月 2015, 11:39
红线女 / 粤曲粤剧唱腔精选之平湖秋月
使用驱动器  :PLDS    DVDROM DH16D7SH   Adapter: 2  ID: 0
读取模式 : 快速
读取偏移校正                   : 0
读取 Lead-In 和 Lead-Out       : 否
用静音填充抓取中丢失偏移的采样 : 是
去除首尾静音块                 : 否
在 CRC 计算中使用了空样本      : 否
已用接口                       : Win NT 及 2000 本地 Win32 接口
所用输出格式 : 内部 WAV 函数
样本格式     : 44.100 Hz;16 Bit;立体声

被抓轨 CD 的 TOC
     音轨 |   开始   |   长度   | 起始扇区 | 结尾扇区
    --------------------------------------------------
       1  |  0:00.00 |  3:17.52 |       0  |   14826  
       2  |  3:17.52 |  3:04.48 |   14827  |   28674  
       3  |  6:22.25 |  4:26.17 |   28675  |   48641  
       4  | 10:48.42 | 12:46.15 |   48642  |  106106  
       5  | 23:34.57 | 16:59.28 |  106107  |  182559  
       6  | 40:34.10 |  5:53.71 |  182560  |  209105  

范围状态及错误
已选择范围
     文件名 C:\84670614抓轨专用文件夹\红线女 - 粤曲粤剧唱腔精选之平湖秋月.wav
     峰值电平 97.7 %
     复制 CRC 66E6D01A
     复制成功
没有错误发生
状态报告结尾


封套



鏈接

游客,如果您要查看本帖隐藏内容请回复


解壓密碼
粤曲粤剧唱腔精选之平湖秋月 -密码.rar (176 Bytes, 下载次数: 122)

评分

参与人数 1威望积分 +500 风云金币 +5 收起 理由
爱的天堂 + 500 + 5 分享不易,加分支持

查看全部评分

回复

使用道具 举报

2
发表于 2015-11-18 00:12:42 | 只看该作者
楼主又再接再励值得一赞,谢分享。
回复 支持 反对

使用道具 举报

3
发表于 2015-11-18 09:19:40 | 只看该作者
谢楼主分享。值得一赞
回复 支持 反对

使用道具 举报

4
发表于 2015-11-18 10:29:11 | 只看该作者
谢谢楼主分享谢谢
回复 支持 反对

使用道具 举报

5
发表于 2015-11-18 15:03:54 | 只看该作者
分享不易,感谢楼主,资源分享.
回复 支持 反对

使用道具 举报

6
发表于 2015-11-18 21:02:02 | 只看该作者
平湖秋月、拷红,仍记心中。
回复 支持 反对

使用道具 举报

7
发表于 2015-11-21 12:19:04 | 只看该作者
回复欣赏,感谢分享。
回复 支持 反对

使用道具 举报

8
发表于 2015-11-22 10:53:23 | 只看该作者
平湖秋月原来是个二胡名曲,在这里变成了戏剧。
回复 支持 反对

使用道具 举报

9
发表于 2015-11-22 22:42:51 | 只看该作者
谢谢分享,非常经典。
回复 支持 反对

使用道具 举报

10
发表于 2015-11-23 14:05:43 | 只看该作者
南国红豆,谢谢分享!!!
回复 支持 反对

使用道具 举报

11
发表于 2015-11-26 09:12:31 | 只看该作者
回复 支持 反对

使用道具 举报

12
发表于 2015-11-28 14:53:06 | 只看该作者
难忘的声音唤醒了记忆,不容错过!谢谢楼主!
回复 支持 反对

使用道具 举报

13
发表于 2015-12-3 11:25:36 | 只看该作者
谢谢分享,谢谢分享
回复 支持 反对

使用道具 举报

14
发表于 2015-12-7 14:50:49 | 只看该作者
红线女真的很有名气,大牌的曲应该好听
回复 支持 反对

使用道具 举报

15
发表于 2015-12-8 09:19:11 | 只看该作者
谢谢楼主的热心分享。
回复 支持 反对

使用道具 举报

您需要登录后才可以回帖 登录 | 注册会员

本版积分规则

Archiver|手机版|联系我们|风云音乐谷 ( 粤ICP备09098429号-2 )  

GMT+8, 2018-7-17 22:52 , Processed in 0.260459 second(s), 20 queries .

Powered by Discuz! X3.4

© 2001-2017 Comsenz Inc.

快速回复 返回顶部 返回列表