设为首页收藏本站

风云音乐谷

 找回密码
 注册会员

QQ登录

只需一步,快速开始

扫一扫,访问微社区


【揭露淘宝、微商卖U盘音乐、无损碟片15条惊天骗术】     【无损音乐下载、检测、使用、播放必备四步】

破解奥迪、途锐U盘播放wav、dts音乐方法 显示歌手和歌名的CD、DTS CD无损碟片制作教程 一键制作AC3 Audio DVD杜比音乐碟片
一键制作U盘(SD卡、TF卡)无损音乐教程 任何车型播放wav、flac、ape、dts无损音乐方法 一键制作DTS Audio DVD无损音乐碟片
一键批量抓取SACD光盘ISO镜像曲目的方法 一键制作世界最顶级的DVD Audio无损音乐碟片 一键制作WAV Audio DVD无损音乐碟片
U盘、碟片播放5.1环绕声dts音乐方法总结 一键制作U盘dts、wav、flac、ape视频音乐教程 一键制作DVD图片(视频)MV音乐碟片教程
查看: 2861|回复: 42

[粤剧辑] 【自抓·WAV】红线女【粤曲粤剧唱腔精选之山乡风云(下)】專輯【百度網盤】

  [复制链接]
发表于 2015-11-18 20:24:44 | 显示全部楼层 |阅读模式

这么精彩的内容,您还在等什么呢?马上注册风云音乐谷查看完整内容

您需要 登录 才可以下载或查看,没有帐号?注册会员

x
【自抓·WAV】红线女【粤曲粤剧唱腔精选之山乡风云(下)】專輯【百度網盤】
資源名稱:粤曲粤剧唱腔精选
藝術大師:红线女+罗品超+文觉非+罗家宝等
資源來源:自購CD自抓
出版發行:中國唱片廣州公司
專輯曲目:
REM DISCID 2E113704
REM COMMENT "ExactAudioCopy v0.99pb4"
PERFORMER "红线女+罗品超+文觉非+罗家宝 "
TITLE "山乡风云(下)"
FILE "红线女+罗品超+文觉非+罗家宝  - 山乡风云(下).wav" WAVE
  TRACK 01 AUDIO
    TITLE "第五场"
    PERFORMER "红线女+罗品超+文觉非+罗家宝 "
    FLAGS DCP
    INDEX 01 00:00:00
  TRACK 02 AUDIO
    TITLE "第六场"
    PERFORMER "红线女+罗品超+文觉非+罗家宝 "
    FLAGS DCP
    INDEX 00 22:33:65
    INDEX 01 22:35:65
  TRACK 03 AUDIO
    TITLE "第七场"
    PERFORMER "红线女+罗品超+文觉非+罗家宝 "
    FLAGS DCP
    INDEX 00 52:24:18
    INDEX 01 52:26:18
  TRACK 04 AUDIO
    TITLE "第八场"
    PERFORMER "红线女+罗品超+文觉非+罗家宝 "
    FLAGS DCP
    INDEX 00 61:38:64
    INDEX 01 61:40:64

抓取日誌

Exact Audio Copy V0.99 prebeta 4 from 23. January 2008
EAC 抓取日志文件从14. 十一月 2015, 11:03
红线女+罗品超+文觉非+罗家宝  / 山乡风云(下)
使用驱动器  :PLDS    DVDROM DH16D7SH   Adapter: 2  ID: 0
读取模式 : 快速
读取偏移校正                   : 0
读取 Lead-In 和 Lead-Out       : 否
用静音填充抓取中丢失偏移的采样 : 是
去除首尾静音块                 : 否
在 CRC 计算中使用了空样本      : 否
已用接口                       : Win NT 及 2000 本地 Win32 接口
所用输出格式 : 内部 WAV 函数
样本格式     : 44.100 Hz;16 Bit;立体声

被抓轨 CD 的 TOC
     音轨 |   开始   |   长度   | 起始扇区 | 结尾扇区
    --------------------------------------------------
       1  |  0:00.00 | 22:35.65 |       0  |  101689  
       2  | 22:35.65 | 29:50.28 |  101690  |  235967  
       3  | 52:26.18 |  9:14.46 |  235968  |  277563  
       4  | 61:40.64 | 11:47.02 |  277564  |  330590  

范围状态及错误
已选择范围
     文件名 C:\84670614抓轨专用文件夹\红线女+罗品超+文觉非+罗家宝  - 山乡风云(下).wav
     峰值电平 97.7 %
     复制 CRC DA41D049
     复制成功
没有错误发生
状态报告结尾
红线女 - 粤曲粤剧唱腔精选 封套1.jpg
红线女 - 粤曲粤剧唱腔精选 封套2.jpg
山乡风云(下)_1.jpg

游客,如果您要查看本帖隐藏内容请回复


山乡风云(下) - 密碼.rar (134 Bytes, 下载次数: 95)

评分

参与人数 1威望积分 +500 风云金币 +5 收起 理由
爱的天堂 + 500 + 5 稀有资源,感谢分享

查看全部评分

回复

使用道具 举报

发表于 2015-11-18 20:55:38 | 显示全部楼层
怀念女姐,唱腔独具风格。
回复 支持 反对

使用道具 举报

发表于 2015-11-18 21:25:18 | 显示全部楼层
谢谢分享,谢谢分享。
回复 支持 反对

使用道具 举报

发表于 2015-11-19 00:11:14 | 显示全部楼层
每晚必有新粤剧新资料发送,谢楼主分享。
回复 支持 反对

使用道具 举报

发表于 2015-11-19 11:16:27 | 显示全部楼层
好曲如美玉,谢谢上传
回复 支持 反对

使用道具 举报

发表于 2015-11-19 13:46:11 | 显示全部楼层
谢谢分享。唱腔独具风格。
回复 支持 反对

使用道具 举报

发表于 2015-11-20 13:01:05 | 显示全部楼层
来自网页 来自网页 复制转存记事复制转存记事
回复 支持 反对

使用道具 举报

发表于 2015-11-20 13:01:39 | 显示全部楼层
本帖最后由 weidabang 于 2017-8-29 14:15 编辑

谢楼主分享.






.
回复 支持 反对

使用道具 举报

 楼主| 发表于 2015-11-20 13:50:42 来自手机 | 显示全部楼层
weidabang 发表于 2015-11-20 13:01
来自网页 来自网页 复制转存记事复制转存记事

????????????
回复 支持 反对

使用道具 举报

发表于 2015-11-20 19:34:27 | 显示全部楼层
心事浩茫连广宇,于无声处听惊雷。
回复 支持 反对

使用道具 举报

 楼主| 发表于 2015-11-21 10:25:00 来自手机 | 显示全部楼层
轻舟 发表于 2015-11-20 19:34
心事浩茫连广宇,于无声处听惊雷。

经典台词, 广播喇叭时代听到宜家了!
回复 支持 反对

使用道具 举报

发表于 2015-11-21 11:08:37 | 显示全部楼层
回复欣赏,感谢分享。
回复 支持 反对

使用道具 举报

发表于 2015-11-21 19:32:59 | 显示全部楼层
84670614 发表于 2015-11-21 10:25
经典台词, 广播喇叭时代听到宜家了!

最喜欢这一段了,声音特别好听,演唱也传神。
回复 支持 反对

使用道具 举报

发表于 2015-11-22 10:36:48 | 显示全部楼层
看封面,这个专辑好新哟。
回复 支持 反对

使用道具 举报

发表于 2015-11-23 14:01:41 | 显示全部楼层
谢谢楼主无私奉献,谢谢!!
回复 支持 反对

使用道具 举报

您需要登录后才可以回帖 登录 | 注册会员

本版积分规则

Archiver|手机版|联系我们|风云音乐谷 ( 粤ICP备09098429号-2 )  

GMT+8, 2018-6-23 08:58 , Processed in 0.101759 second(s), 26 queries .

Powered by Discuz! X3.4

© 2001-2017 Comsenz Inc.

快速回复 返回顶部 返回列表