设为首页收藏本站

风云音乐谷

 找回密码
 注册会员

QQ登录

只需一步,快速开始

扫一扫,访问微社区


【揭露淘宝、微商卖U盘音乐、无损碟片15条惊天骗术】     【无损音乐下载、检测、使用、播放必备四步】

破解奥迪、途锐U盘播放wav、dts音乐方法 显示歌手和歌名的CD、DTS CD无损碟片制作教程 一键制作AC3 Audio DVD杜比音乐碟片
一键制作U盘(SD卡、TF卡)无损音乐教程 任何车型播放wav、flac、ape、dts无损音乐方法 一键制作DTS Audio DVD无损音乐碟片
一键批量抓取SACD光盘ISO镜像曲目的方法 一键制作世界最顶级的DVD Audio无损音乐碟片 一键制作WAV Audio DVD无损音乐碟片
U盘、碟片播放5.1环绕声dts音乐方法总结 一键制作U盘dts、wav、flac、ape视频音乐教程 一键制作DVD图片(视频)MV音乐碟片教程
查看: 8065|回复: 545

[国语] [WAV] 孙悦 - 她和她们 [百度][tosea原创/百度]

  [复制链接]
发表于 2016-10-25 19:30:13 | 显示全部楼层 |阅读模式

这么精彩的内容,您还在等什么呢?马上注册风云音乐谷查看完整内容

您需要 登录 才可以下载或查看,没有帐号?注册会员

x
孙悦的经典专辑
首推《小龙女》
可以说是百听不厌

包内有全部套图

114151oz4kosoqkz0kzxw4.jpg


PERFORMER "孙悦"
TITLE "她和她们"
FILE "CDImage.wav" WAVE
  TRACK 01 AUDIO
    TITLE "倾城之恋"
    PERFORMER "孙悦"
    INDEX 01 00:00:00
  TRACK 02 AUDIO
    TITLE "天别亮"
    PERFORMER "孙悦"
    INDEX 00 04:53:27
    INDEX 01 04:53:51
  TRACK 03 AUDIO
    TITLE "因为我是女人"
    PERFORMER "孙悦"
    INDEX 00 10:08:33
    INDEX 01 10:08:57
  TRACK 04 AUDIO
    TITLE "真世界"
    PERFORMER "孙悦"
    INDEX 00 14:34:24
    INDEX 01 14:34:48
  TRACK 05 AUDIO
    TITLE "永远在一起"
    PERFORMER "孙悦"
    INDEX 00 17:32:22
    INDEX 01 17:32:46
  TRACK 06 AUDIO
    TITLE "他们爱着的我们"
    PERFORMER "孙悦"
    INDEX 00 20:53:62
    INDEX 01 20:54:11
  TRACK 07 AUDIO
    TITLE "小龙女"
    PERFORMER "孙悦"
    INDEX 00 25:14:15
    INDEX 01 25:14:39
  TRACK 08 AUDIO
    TITLE "热带鱼和仙人球"
    PERFORMER "孙悦"
    INDEX 00 29:50:57
    INDEX 01 29:51:06
  TRACK 09 AUDIO
    TITLE "她的婚礼"
    PERFORMER "孙悦"
    INDEX 00 33:36:62
    INDEX 01 33:37:11
  TRACK 10 AUDIO
    TITLE "悦儿"
    PERFORMER "孙悦"
    INDEX 00 37:59:17
    INDEX 01 37:59:41

评分

参与人数 1威望积分 +500 风云金币 +3 收起 理由
爱的天堂 + 500 + 3 分享不易,加分支持

查看全部评分

回复

使用道具 举报

 楼主| 发表于 2016-10-25 19:31:20 | 显示全部楼层




EAC 抓取日志文件从4. 八月t 2015, 22:51 用于 CD
孙悦 / 她和她们

使用驱动器  :ATAPI   iHDS118   7   Adapter: 0  ID: 0
读取模式    :不使用 C2,使用精确流, 禁用缓存的安全模式
读取偏移校正:0
读取 Lead-In 和 Lead-Out : 否

所用输出模式:内部 WAV 函数
                     44.100 Hz;16 Bit;立体声

其他选项    :
    用静音填充抓取中丢失偏移的采样 : 是
    去除首尾静音块 : 否
    已安装外部 ASPI 接口


范围状态及错误
已选择范围
     文件名 E:\Tosea 原抓\CDImage.wav

     峰值电平 100.0 %
     范围质量 99.9 %
     CRC 5752F799
     复制成功

没有错误发生

状态报告结尾
回复 支持 反对

使用道具 举报

 楼主| 发表于 2016-10-25 19:31:39 | 显示全部楼层
游客,如果您要查看本帖隐藏内容请回复
回复 支持 反对

使用道具 举报

发表于 2016-10-26 00:24:37 | 显示全部楼层
支持,试听下,感谢分享!
回复 支持 反对

使用道具 举报

发表于 2016-10-26 09:00:05 | 显示全部楼层
我今天最想说:「今天很努」
回复 支持 反对

使用道具 举报

发表于 2016-10-26 17:17:52 | 显示全部楼层
试听下,感谢分享!
回复 支持 反对

使用道具 举报

发表于 2016-10-27 00:46:24 来自手机 | 显示全部楼层
下载听一听,应该不错的
回复 支持 反对

使用道具 举报

发表于 2016-10-27 11:57:49 | 显示全部楼层
这碟真心非常不错,谢谢提供分享了
回复 支持 反对

使用道具 举报

发表于 2016-10-27 11:57:49 | 显示全部楼层
好听,忍不住要下载,感谢了
回复 支持 反对

使用道具 举报

发表于 2016-10-28 10:23:52 | 显示全部楼层
這帖我收了!謝謝樓主!
回复 支持 反对

使用道具 举报

发表于 2016-10-28 13:57:49 | 显示全部楼层
动听的音乐人人都喜欢。谢谢分享...
回复 支持 反对

使用道具 举报

发表于 2016-10-30 08:20:22 | 显示全部楼层
好歌曲又来了,谢谢楼主
回复 支持 反对

使用道具 举报

发表于 2016-10-30 18:58:24 | 显示全部楼层
支持,试听下,感谢
回复 支持 反对

使用道具 举报

发表于 2016-11-6 11:16:53 | 显示全部楼层
我来下载看看是不是适合我
回复 支持 反对

使用道具 举报

发表于 2016-11-6 14:16:34 | 显示全部楼层
支持一下,谢谢。。。。
回复 支持 反对

使用道具 举报

您需要登录后才可以回帖 登录 | 注册会员

本版积分规则

Archiver|手机版|联系我们|风云音乐谷 ( 粤ICP备09098429号-2 )  

GMT+8, 2018-8-21 22:04 , Processed in 0.090383 second(s), 20 queries .

Powered by Discuz! X3.4

© 2001-2017 Comsenz Inc.

快速回复 返回顶部 返回列表