设为首页收藏本站

风云音乐谷

 找回密码
 注册会员

QQ登录

只需一步,快速开始

扫一扫,访问微社区


【揭露淘宝、微商卖U盘音乐、无损碟片15条惊天骗术】     【无损音乐下载、检测、使用、播放必备四步】

破解奥迪、途锐U盘播放wav、dts音乐方法 显示歌手和歌名的CD、DTS CD无损碟片制作教程 一键制作AC3 Audio DVD杜比音乐碟片
一键制作U盘(SD卡、TF卡)无损音乐教程 任何车型播放wav、flac、ape、dts无损音乐方法 一键制作DTS Audio DVD无损音乐碟片
一键批量抓取SACD光盘ISO镜像曲目的方法 一键制作世界最顶级的DVD Audio无损音乐碟片 一键制作WAV Audio DVD无损音乐碟片
U盘、碟片播放5.1环绕声dts音乐方法总结 一键制作U盘dts、wav、flac、ape视频音乐教程 一键制作DVD图片(视频)MV音乐碟片教程
查看: 6373|回复: 279

[粤语] [WAV]蔡国权 - 完美先生(天凯引进版)[tosea原创/百度]

  [复制链接]
发表于 2016-10-25 19:37:31 | 显示全部楼层 |阅读模式

这么精彩的内容,您还在等什么呢?马上注册风云音乐谷查看完整内容

您需要 登录 才可以下载或查看,没有帐号?注册会员

x

这张专辑应该是论坛首发吧反正我是没有见人发过
宝贝有6张扫描图

164212psl4gslohwlln44p.jpg


PERFORMER "蔡国权"
TITLE "完美先生"
FILE "CDImage.wav" WAVE
  TRACK 01 AUDIO
    TITLE "让我假设有你"
    PERFORMER "蔡国权"
    INDEX 01 00:00:00
  TRACK 02 AUDIO
    TITLE "自夸"
    PERFORMER "蔡国权"
    INDEX 00 04:29:72
    INDEX 01 04:31:72
  TRACK 03 AUDIO
    TITLE "花之恋"
    PERFORMER "蔡国权"
    INDEX 00 08:53:61
    INDEX 01 08:55:61
  TRACK 04 AUDIO
    TITLE "完美先生"
    PERFORMER "蔡国权"
    INDEX 00 13:10:47
    INDEX 01 13:12:47
  TRACK 05 AUDIO
    TITLE "不装饰你的梦(重新编曲)"
    PERFORMER "蔡国权"
    INDEX 00 17:14:64
    INDEX 01 17:16:64
  TRACK 06 AUDIO
    TITLE "风中劲草(重新编曲)"
    PERFORMER "蔡国权 谭咏麟"
    INDEX 00 20:52:00
    INDEX 01 20:54:00
  TRACK 07 AUDIO
    TITLE "顺流逆流(重新编曲)"
    PERFORMER "蔡国权"
    INDEX 00 24:32:68
    INDEX 01 24:34:68
  TRACK 08 AUDIO
    TITLE "寒傲似冰(重新编曲)"
    PERFORMER "蔡国权"
    INDEX 00 28:17:07
    INDEX 01 28:19:07
  TRACK 09 AUDIO
    TITLE "如梦初醒(重新编曲)"
    PERFORMER "蔡国权"
    INDEX 00 31:33:51
    INDEX 01 31:35:51
  TRACK 10 AUDIO
    TITLE "一切也愿意(重新编曲)"
    PERFORMER "蔡国权"
    INDEX 00 35:24:61
    INDEX 01 35:26:61

评分

参与人数 1威望积分 +500 风云金币 +4 收起 理由
爱的天堂 + 500 + 4 分享不易,加分支持

查看全部评分

回复

使用道具 举报

 楼主| 发表于 2016-10-25 19:37:48 | 显示全部楼层
EAC 抓取日志文件从18. 八月t 2015, 19:11 用于 CD
蔡国权 / 完美先生

使用驱动器  :ATAPI   iHDS118   7   Adapter: 0  ID: 0
读取模式    :快速
读取偏移校正:0
读取 Lead-In 和 Lead-Out : 否

所用输出模式:内部 WAV 函数
                     44.100 Hz;16 Bit;立体声

其他选项    :
    用静音填充抓取中丢失偏移的采样 : 是
    去除首尾静音块 : 否
    已安装外部 ASPI 接口


范围状态及错误
已选择范围
     文件名 E:\Tosea 原抓\CDImage.wav

     峰值电平 100.0 %
     CRC 7C0FB5EA
     复制成功

没有错误发生

状态报告结尾
回复 支持 反对

使用道具 举报

 楼主| 发表于 2016-10-25 19:38:06 | 显示全部楼层
游客,如果您要查看本帖隐藏内容请回复
回复 支持 反对

使用道具 举报

发表于 2016-10-25 23:15:58 | 显示全部楼层
我来下载了,谢谢支持
回复 支持 反对

使用道具 举报

发表于 2016-10-25 23:40:21 | 显示全部楼层
精选好碟,收下了。谢谢!
回复 支持 反对

使用道具 举报

发表于 2016-10-26 08:03:14 | 显示全部楼层
good.................
回复 支持 反对

使用道具 举报

发表于 2016-10-26 12:56:51 | 显示全部楼层
非常感谢楼主首发!资源非常珍贵!
回复 支持 反对

使用道具 举报

发表于 2016-10-26 16:42:11 | 显示全部楼层
感謝大大的分享啊,謝謝你
回复 支持 反对

使用道具 举报

发表于 2016-10-26 17:11:59 | 显示全部楼层
进去看看。
回复 支持 反对

使用道具 举报

发表于 2016-10-27 13:30:40 | 显示全部楼层
找了很久,终于找到,不知道音色怎么样
回复 支持 反对

使用道具 举报

发表于 2016-10-27 15:17:09 | 显示全部楼层
好音乐,辛苦了,谢谢!
回复 支持 反对

使用道具 举报

发表于 2016-10-29 00:54:17 来自手机 | 显示全部楼层
下载听一听怎么样
回复 支持 反对

使用道具 举报

发表于 2016-10-29 13:58:43 | 显示全部楼层
谢谢楼主的分享!
回复 支持 反对

使用道具 举报

发表于 2016-10-29 21:12:38 | 显示全部楼层
好碟,就是怕要人民币
回复 支持 反对

使用道具 举报

发表于 2016-10-30 21:58:26 | 显示全部楼层
我来下载了,谢谢支持
回复 支持 反对

使用道具 举报

您需要登录后才可以回帖 登录 | 注册会员

本版积分规则

Archiver|手机版|联系我们|风云音乐谷 ( 粤ICP备09098429号-2 )  

GMT+8, 2018-6-23 23:57 , Processed in 0.124932 second(s), 21 queries .

Powered by Discuz! X3.4

© 2001-2017 Comsenz Inc.

快速回复 返回顶部 返回列表