设为首页收藏本站

风云音乐谷

 找回密码
 注册会员

QQ登录

只需一步,快速开始

扫一扫,访问微社区


【揭露淘宝、微商卖U盘音乐、无损碟片15条惊天骗术】     【无损音乐下载、检测、使用、播放必备四步】

破解奥迪、途锐U盘播放wav、dts音乐方法 显示歌手和歌名的CD、DTS CD无损碟片制作教程 一键制作AC3 Audio DVD杜比音乐碟片
一键制作U盘(SD卡、TF卡)无损音乐教程 任何车型播放wav、flac、ape、dts无损音乐方法 一键制作DTS Audio DVD无损音乐碟片
一键批量抓取SACD光盘ISO镜像曲目的方法 一键制作世界最顶级的DVD Audio无损音乐碟片 一键制作WAV Audio DVD无损音乐碟片
U盘、碟片播放5.1环绕声dts音乐方法总结 一键制作U盘dts、wav、flac、ape视频音乐教程 一键制作DVD图片(视频)MV音乐碟片教程
查看: 6113|回复: 254

[怀旧] [WAV]简文秀 - 中国艺术歌曲[tosea原创/百度]

[复制链接]
发表于 2016-10-25 19:43:30 | 显示全部楼层 |阅读模式

这么精彩的内容,您还在等什么呢?马上注册风云音乐谷查看完整内容

您需要 登录 才可以下载或查看,没有帐号?注册会员

x

本帖最后由 tosea 于 2016-4-12 09:39 编辑


对内地观众来说,简文秀还是一个十分陌生的名字,然而在宝岛台湾,她已经是一位名闻遐迩的歌唱家:上自岛内政要,下至普通民众都能叫得出她的名字。她获得过加拿大“波威尔1990年国际声乐独唱大赛”等多项国际大奖,登上了国际声乐界巅峰。简文秀也是岛内首位用声乐演绎民族歌曲的歌唱家,并出版了《简文秀台湾歌谣》等多张专辑唱片,演唱了许多深受岛内民众欢迎和喜爱的歌曲。

友情提示:曲目看2楼cue,包内有全部扫描歌词,女高音歌唱家演唱的中国艺术歌曲,下载需谨慎。


170637iy09e0dt301dd3tt.jpg

评分

参与人数 1威望积分 +500 风云金币 +3 收起 理由
爱的天堂 + 500 + 3 分享不易,加分支持

查看全部评分

回复

使用道具 举报

 楼主| 发表于 2016-10-25 19:43:49 | 显示全部楼层
PERFORMER "简文秀"
TITLE "中国艺术歌曲"
FILE "CDImage.wav" WAVE
  TRACK 01 AUDIO
    TITLE "松花江上"
    PERFORMER "简文秀"
    INDEX 01 00:00:00
  TRACK 02 AUDIO
    TITLE "花非花"
    PERFORMER "简文秀"
    INDEX 00 03:09:60
    INDEX 01 03:12:60
  TRACK 03 AUDIO
    TITLE "春思曲"
    PERFORMER "简文秀"
    INDEX 00 05:13:20
    INDEX 01 05:16:20
  TRACK 04 AUDIO
    TITLE "白云歌送刘十六归山"
    PERFORMER "简文秀"
    INDEX 00 07:19:15
    INDEX 01 07:22:15
  TRACK 05 AUDIO
    TITLE "声声慢"
    PERFORMER "简文秀"
    INDEX 00 10:00:42
    INDEX 01 10:03:42
  TRACK 06 AUDIO
    TITLE "思乡"
    PERFORMER "简文秀"
    INDEX 00 13:40:62
    INDEX 01 13:43:62
  TRACK 07 AUDIO
    TITLE "玫瑰三愿"
    PERFORMER "简文秀"
    INDEX 00 16:38:17
    INDEX 01 16:41:17
  TRACK 08 AUDIO
    TITLE "追寻"
    PERFORMER "简文秀"
    INDEX 00 18:29:05
    INDEX 01 18:32:05
  TRACK 09 AUDIO
    TITLE "轻笑"
    PERFORMER "简文秀"
    INDEX 00 21:04:70
    INDEX 01 21:07:70
  TRACK 10 AUDIO
    TITLE "萤"
    PERFORMER "简文秀"
    INDEX 00 24:38:70
    INDEX 01 24:41:70
  TRACK 11 AUDIO
    TITLE "故乡"
    PERFORMER "简文秀"
    INDEX 00 27:24:07
    INDEX 01 27:27:07
  TRACK 12 AUDIO
    TITLE "长城谣"
    PERFORMER "简文秀"
    INDEX 00 30:54:15
    INDEX 01 30:57:15
  TRACK 13 AUDIO
    TITLE "西风的话"
    PERFORMER "简文秀"
    INDEX 00 33:18:72
    INDEX 01 33:21:72
  TRACK 14 AUDIO
    TITLE "怀念曲"
    PERFORMER "简文秀"
    INDEX 00 35:32:60
    INDEX 01 35:35:60
  TRACK 15 AUDIO
    TITLE "星月交辉"
    PERFORMER "简文秀"
    INDEX 00 40:15:62
    INDEX 01 40:18:62
  TRACK 16 AUDIO
    TITLE "浣溪沙"
    PERFORMER "简文秀"
    INDEX 00 43:05:22
    INDEX 01 43:08:22
  TRACK 17 AUDIO
    TITLE "林花谢了春红太匆匆"
    PERFORMER "简文秀"
    INDEX 00 46:10:15
    INDEX 01 46:13:15
  TRACK 18 AUDIO
    TITLE "我住长江头"
    PERFORMER "简文秀"
    INDEX 00 48:23:15
    INDEX 01 48:26:15
  TRACK 19 AUDIO
    TITLE "冬夜梦金陵"
    PERFORMER "简文秀"
    INDEX 00 50:33:47
    INDEX 01 50:36:47
  TRACK 20 AUDIO
    TITLE "红豆词"
    PERFORMER "简文秀"
    INDEX 00 53:51:37
    INDEX 01 53:54:37
  TRACK 21 AUDIO
    TITLE "偶然"
    PERFORMER "简文秀"
    INDEX 00 56:19:02
    INDEX 01 56:22:02
  TRACK 22 AUDIO
    TITLE "斯人何在"
    PERFORMER "简文秀"
    INDEX 00 58:45:07
    INDEX 01 58:48:07
  TRACK 23 AUDIO
    TITLE "思乡曲"
    PERFORMER "简文秀"
    INDEX 00 62:02:00
    INDEX 01 62:05:00
  TRACK 24 AUDIO
    TITLE "送友人"
    PERFORMER "简文秀"
    INDEX 00 65:14:42
    INDEX 01 65:17:42
回复 支持 反对

使用道具 举报

 楼主| 发表于 2016-10-25 19:44:03 | 显示全部楼层
EAC 抓取日志文件从14. 十二月 2015, 20:21 用于 CD
简文秀 / 中国艺术歌曲

使用驱动器  :ATAPI   iHDS118   7   Adapter: 0  ID: 0
读取模式    :快速
读取偏移校正:0
读取 Lead-In 和 Lead-Out : 否

所用输出模式:内部 WAV 函数
                     44.100 Hz;16 Bit;立体声

其他选项    :
    用静音填充抓取中丢失偏移的采样 : 是
    去除首尾静音块 : 否
    已安装外部 ASPI 接口


范围状态及错误
已选择范围
     文件名 E:\Tosea 原抓\CDImage.wav

     峰值电平 100.0 %
     CRC 0CB48E3E
     复制成功

没有错误发生

状态报告结尾
回复 支持 反对

使用道具 举报

 楼主| 发表于 2016-10-25 19:44:28 | 显示全部楼层
游客,如果您要查看本帖隐藏内容请回复
回复 支持 反对

使用道具 举报

发表于 2016-10-26 06:22:12 | 显示全部楼层
真的没有半点关于简文秀的信息哎!谢谢分享。不妨打开看看吧!
回复 支持 反对

使用道具 举报

发表于 2016-10-26 06:25:36 | 显示全部楼层
intowhite 发表于 2016-10-25 19:43
PERFORMER "简文秀"
TITLE "中国艺术歌曲"
FILE "CDImage.wav" WAVE

千呼万唤始终谢谢分享,怎么提取码不能用?
回复 支持 反对

使用道具 举报

发表于 2016-10-26 15:27:30 | 显示全部楼层
下来听听。谢谢分享!
回复 支持 反对

使用道具 举报

发表于 2016-10-26 16:41:11 | 显示全部楼层
樓主太厲害了!這個帖子不回對不起自己!
回复 支持 反对

使用道具 举报

发表于 2016-10-27 06:48:00 | 显示全部楼层
制作上传辛苦了!感谢朋友辛勤劳动
回复 支持 反对

使用道具 举报

发表于 2016-10-27 19:12:51 | 显示全部楼层
支持楼主的分享,我珍藏
回复 支持 反对

使用道具 举报

发表于 2016-10-28 07:40:59 | 显示全部楼层
下来听听,谢谢。
回复 支持 反对

使用道具 举报

发表于 2016-10-28 12:15:46 | 显示全部楼层
波威尔1990年国际声乐独唱大赛得主
回复 支持 反对

使用道具 举报

发表于 2016-10-30 10:57:01 | 显示全部楼层
她是哪儿的人啊?
回复 支持 反对

使用道具 举报

发表于 2016-10-30 18:54:44 | 显示全部楼层
谢谢分享。不妨打开看看吧
回复 支持 反对

使用道具 举报

发表于 2016-10-31 14:11:05 | 显示全部楼层
听听,谢谢楼主,辛苦了。
回复 支持 反对

使用道具 举报

您需要登录后才可以回帖 登录 | 注册会员

本版积分规则

Archiver|手机版|联系我们|风云音乐谷 ( 粤ICP备09098429号-2 )  

GMT+8, 2018-6-23 23:51 , Processed in 0.101679 second(s), 20 queries .

Powered by Discuz! X3.4

© 2001-2017 Comsenz Inc.

快速回复 返回顶部 返回列表