设为首页收藏本站

风云音乐谷

 找回密码
 注册会员

QQ登录

只需一步,快速开始

扫一扫,访问微社区


【揭露淘宝、微商卖U盘音乐、无损碟片15条惊天骗术】     【无损音乐下载、检测、使用、播放必备四步】

破解奥迪、途锐U盘播放wav、dts音乐方法 显示歌手和歌名的CD、DTS CD无损碟片制作教程 一键制作AC3 Audio DVD杜比音乐碟片
一键制作U盘(SD卡、TF卡)无损音乐教程 任何车型播放wav、flac、ape、dts无损音乐方法 一键制作DTS Audio DVD无损音乐碟片
一键批量抓取SACD光盘ISO镜像曲目的方法 一键制作世界最顶级的DVD Audio无损音乐碟片 一键制作WAV Audio DVD无损音乐碟片
U盘、碟片播放5.1环绕声dts音乐方法总结 一键制作U盘dts、wav、flac、ape视频音乐教程 一键制作DVD图片(视频)MV音乐碟片教程
查看: 873|回复: 13

[日韩高清] 金孝渊 现场斗牛舞曲 120721.MBC[1080I/TS/278M][BD]

[复制链接]
发表于 2017-7-3 00:04:17 | 显示全部楼层 |阅读模式

这么精彩的内容,您还在等什么呢?马上注册风云音乐谷查看完整内容

您需要 登录 才可以下载或查看,没有帐号?注册会员

x
金孝渊 现场斗牛舞曲 120721.MBC.ts.jpg
General
ID                             : 1 (0x1)
Complete name                  : E:\金孝渊 现场斗牛舞曲 120721.MBC.ts
Format                         : MPEG-TS
File size                      : 278 MiB
Duration                       : 2mn 8s
Overall bit rate mode          : Variable
Overall bit rate               : 18.2 Mbps

Video
ID                             : 17 (0x11)
Menu ID                        : 1 (0x1)
Format                         : MPEG Video
Format version                 : Version 2
Format profile                 : Main@High
Format settings, BVOP          : Yes
Format settings, Matrix        : Custom
Format settings, GOP           : Variable
Format settings, picture struc : Frame
Codec ID                       : 2
Duration                       : 2mn 7s
Bit rate mode                  : Variable
Bit rate                       : 16.8 Mbps
Maximum bit rate               : 17.4 Mbps
Width                          : 1 920 pixels
Height                         : 1 080 pixels
Display aspect ratio           : 16:9
Frame rate                     : 29.970 (30000/1001) fps
Standard                       : Component
Color space                    : YUV
Chroma subsampling             : 4:2:0
Bit depth                      : 8 bits
Scan type                      : Interlaced
Scan order                     : Top Field First
Compression mode               : Lossy
Bits/(Pixel*Frame)             : 0.271
Stream size                    : 256 MiB (92%)
Color primaries                : BT.709
Transfer characteristics       : BT.709
Matrix coefficients            : BT.709

Audio
ID                             : 20 (0x14)
Menu ID                        : 1 (0x1)
Format                         : AC-3
Format/Info                    : Audio Coding 3
Mode extension                 : CM (complete main)
Format settings, Endianness    : Big
Codec ID                       : 129
Duration                       : 2mn 8s
Bit rate mode                  : Constant
Bit rate                       : 448 Kbps
Channel(s)                     : 2 channels
Channel positions              : Front: L R
Sampling rate                  : 48.0 KHz
Frame rate                     : 31.250 fps (1536 spf)
Compression mode               : Lossy
Delay relative to video        : -408ms
Stream size                    : 6.85 MiB (2%)
Language                       : Korean

Text
ID                             : 17 (0x11)-1
Menu ID                        : 1 (0x1)
Format                         : EIA-708
Muxing mode                    : A/53 / DTVCC Transport
Muxing mode, more info         : Muxed in Video #1
Duration                       : 2mn 7s
Bit rate mode                  : Constant
Stream size                    : 0.00 Byte (0%)
游客,如果您要查看本帖隐藏内容请回复


评分

参与人数 1威望积分 +500 收起 理由
树欲静 + 500 分享不易,加分支持

查看全部评分

回复

使用道具 举报

发表于 2017-7-3 11:40:16 | 显示全部楼层
风云音乐有你更精彩
回复 支持 反对

使用道具 举报

发表于 2017-7-19 15:03:52 | 显示全部楼层
shi baidu wnagoan是百度网盘吗?
回复 支持 反对

使用道具 举报

发表于 2017-7-22 14:43:48 来自手机 | 显示全部楼层
谢谢分享。。。。。。。。。。。。
回复 支持 反对

使用道具 举报

发表于 2017-7-29 20:49:07 | 显示全部楼层
感谢分享斗牛舞曲
回复 支持 反对

使用道具 举报

发表于 2017-8-11 21:39:54 | 显示全部楼层
感谢楼主的精彩分享,辛苦了
回复 支持 反对

使用道具 举报

发表于 2017-11-6 20:35:45 | 显示全部楼层
好,,,,,,,,,,,,,,,,
回复 支持 反对

使用道具 举报

发表于 2017-12-19 20:52:35 | 显示全部楼层
喜欢的舞曲,谢谢分享
回复 支持 反对

使用道具 举报

发表于 2018-2-6 17:46:01 | 显示全部楼层
一定不错呀,收下了
回复 支持 反对

使用道具 举报

发表于 2018-3-8 20:14:10 | 显示全部楼层
阵容强大啊,果断下载
回复 支持 反对

使用道具 举报

发表于 2018-4-5 12:22:53 | 显示全部楼层
很喜欢这个看看吧
回复 支持 反对

使用道具 举报

发表于 2018-5-4 23:33:45 | 显示全部楼层
看着漂亮,喜欢,谢谢楼主
回复 支持 反对

使用道具 举报

发表于 2018-5-22 17:50:35 | 显示全部楼层
要是有试听就好了
回复 支持 反对

使用道具 举报

发表于 2018-5-25 22:42:21 | 显示全部楼层
感谢楼主,辛苦了,喜欢她
回复 支持 反对

使用道具 举报

您需要登录后才可以回帖 登录 | 注册会员

本版积分规则

Archiver|手机版|联系我们|风云音乐谷 ( 粤ICP备09098429号-2 )  

GMT+8, 2018-8-19 05:56 , Processed in 0.084469 second(s), 23 queries .

Powered by Discuz! X3.4

© 2001-2017 Comsenz Inc.

快速回复 返回顶部 返回列表