设为首页收藏本站

风云音乐谷

 找回密码
 注册会员

QQ登录

只需一步,快速开始

扫一扫,访问微社区


【揭露淘宝、微商卖U盘音乐、无损碟片15条惊天骗术】     【无损音乐下载、检测、使用、播放必备四步】

破解奥迪、途锐U盘播放wav、dts音乐方法 显示歌手和歌名的CD、DTS CD无损碟片制作教程 一键制作AC3 Audio DVD杜比音乐碟片
一键制作U盘(SD卡、TF卡)无损音乐教程 任何车型播放wav、flac、ape、dts无损音乐方法 一键制作DTS Audio DVD无损音乐碟片
一键批量抓取SACD光盘ISO镜像曲目的方法 一键制作世界最顶级的DVD Audio无损音乐碟片 一键制作WAV Audio DVD无损音乐碟片
U盘、碟片播放5.1环绕声dts音乐方法总结 一键制作U盘dts、wav、flac、ape视频音乐教程 一键制作DVD图片(视频)MV音乐碟片教程
查看: 681|回复: 16

[杂合专辑] 群星《豪记之星3》【WAV+CUE/百度】

[复制链接]
发表于 2017-10-7 09:42:15 | 显示全部楼层 |阅读模式

这么精彩的内容,您还在等什么呢?马上注册风云音乐谷查看完整内容

您需要 登录 才可以下载或查看,没有帐号?注册会员

x
cover.jpg

专辑名称:豪记之星3
专辑艺人:群星
发行公司:豪记影视唱片有限公司 
发行时间:2014年06月27日
专辑语种:台语
资源类型:WAV+CUE

专辑介绍:
收录多首最新超夯经典原声原影台语流行金曲!
动人的情歌,让人更感窝心
匠尽悲欢离合真情擎爱百听不厌
金曲歌王歌后联手出击
ㄠ5首冠军歌曲.原影原音重现
精采最强档的唱将值得你珍藏

专辑曲目:
01.幸福送乎你 蔡小虎主唱
02.欺骗的诅咒 蔡小虎主唱
03.我的心内话 蔡小虎/龙千玉主唱
04.爱你哦 蔡小虎主唱
05.一剑望天漄 吴俊宏主唱
06.爱着你 吴俊宏/向蕙玲主唱   三立八点档 世间情 片头曲
07.无敌英雄 吴俊宏主唱
08.少年游 吴俊宏主唱
09.多情的阿那答 方怡萍主唱   三立 戏说台湾 片尾曲
10.水中月圆 方怡萍主唱
11.只有一个你 方怡萍主唱
12.有心人痴情梦 方怡萍主唱




下载地址:

游客,如果您要查看本帖隐藏内容请回复



套图地址:

游客,如果您要查看本帖隐藏内容请回复

评分

参与人数 1威望积分 +500 风云金币 +3 收起 理由
爱的天堂 + 500 + 3 分享不易,加分支持

查看全部评分

回复

使用道具 举报

 楼主| 发表于 2017-10-7 09:42:59 | 显示全部楼层
Exact Audio Copy V1.0 beta 3 from 29. August 2011

EAC 抓取日志文件从3. 十月 2015, 3:32

群星 / 豪记之星3

使用驱动器  :PIONEER DVD-RW  DVR-221L   Adapter: 1  ID: 1

读取模式      : 可靠Secure
使用精确流     : 是
清空音频缓存    : 是
使用 C2 指示器 : 否

读取偏移校正:               : 6
读取 Lead-In 和 Lead-Out : 否
用静音填充抓取中丢失偏移的采样       : 是
去除首尾静音块               : 否
在CRC 计算中使用了空样本       : 是
已用接口                  : Win NT 及 2000 本地 Win32 接口

所用输出模式: : 内部 WAV 函数
样本格式    : 44.100 Hz; 16 Bit; 立体声


已抓取 CD 的 TOC

     音轨 |    起始    |    长度    |  起始扇区  |  结束扇区  
    --------------------------------------------
      1 |  0:00.00 |  3:48.23 |      0 |  17122
      2 |  3:48.23 |  4:22.24 |  17123 |  36796
      3 |  8:10.47 |  4:01.33 |  36797 |  54904
      4 | 12:12.05 |  4:41.25 |  54905 |  76004
      5 | 16:53.30 |  4:32.20 |  76005 |  96424
      6 | 21:25.50 |  3:49.25 |  96425 | 113624
      7 | 25:15.00 |  4:02.19 | 113625 | 131793
      8 | 29:17.19 |  4:09.24 | 131794 | 150492
      9 | 33:26.43 |  3:41.21 | 150493 | 167088
     10 | 37:07.64 |  4:49.28 | 167089 | 188791
     11 | 41:57.17 |  4:21.27 | 188792 | 208393
     12 | 46:18.44 |  4:36.23 | 208394 | 229116


范围状态及错误

已选择范围

     文件名 E:\bhvvvv\豪记之星3\群星 - 豪记之星3.wav

     峰值电平 99.1 %
     抓取速度 1.9 X
     范围质量 100.0 %
     复制 CRC 404A8617
     复制成功

没有错误发生

状态报告结尾

---- CUETools DB Plugin V2.1.3

[CTDB TOCID: Y4yo7M3ThPKgJmThhL3JWPUX9BI-] disk not present in database, Submit result: Y4yo7M3ThPKgJmThhL3JWPUX9BI- has been uploaded


==== 记录校验日志 ABD84A95402BEB39E035C0A8960D3FB186CE74FEDB990DB3E794E4C751947BD4 ====
回复 支持 反对

使用道具 举报

发表于 2017-10-7 11:15:23 | 显示全部楼层
感謝樓主的分享,收下了。
回复 支持 反对

使用道具 举报

发表于 2017-10-7 18:41:40 | 显示全部楼层
真感谢楼主分享豪记之星之三
回复 支持 反对

使用道具 举报

发表于 2017-10-8 09:37:10 | 显示全部楼层
谢谢楼主音乐分享
回复 支持 反对

使用道具 举报

发表于 2017-10-10 11:53:58 | 显示全部楼层
群星《豪记之星3》
回复 支持 反对

使用道具 举报

发表于 2017-10-13 14:31:22 | 显示全部楼层
豪記主打歌曲--好聽,感恩樓主
回复 支持 反对

使用道具 举报

发表于 2017-10-14 14:13:17 | 显示全部楼层
我喜欢,谢谢啦!!!!
回复 支持 反对

使用道具 举报

发表于 2017-10-19 22:48:37 | 显示全部楼层
有屠洪刚的风格,值得欣赏。
回复 支持 反对

使用道具 举报

发表于 2017-10-24 14:55:04 | 显示全部楼层
整理辛苦、分享快乐
回复 支持 反对

使用道具 举报

发表于 2017-10-25 20:19:20 | 显示全部楼层
我收下礼物欣赏,我很喜爱的闽南语歌碟
回复 支持 反对

使用道具 举报

发表于 2017-11-6 20:12:38 | 显示全部楼层
感谢楼主分享好音乐,值得珍藏,下来听听!!
回复 支持 反对

使用道具 举报

发表于 2017-11-9 05:48:18 | 显示全部楼层
谢谢楼主的音乐分享
回复 支持 反对

使用道具 举报

发表于 2017-11-9 18:17:57 | 显示全部楼层
闽南歌曲资源不多,不可错过!
回复 支持 反对

使用道具 举报

发表于 2017-11-22 13:16:05 | 显示全部楼层
谢谢楼主音乐分享群星《豪记之星3》
回复 支持 反对

使用道具 举报

您需要登录后才可以回帖 登录 | 注册会员

本版积分规则

Archiver|手机版|联系我们|风云音乐谷 ( 粤ICP备09098429号-2 )  

GMT+8, 2018-6-24 19:17 , Processed in 0.099211 second(s), 21 queries .

Powered by Discuz! X3.4

© 2001-2017 Comsenz Inc.

快速回复 返回顶部 返回列表