设为首页收藏本站

风云音乐谷

 找回密码
 注册会员

QQ登录

只需一步,快速开始

扫一扫,访问微社区


【揭露淘宝、微商卖U盘音乐、无损碟片15条惊天骗术】     【无损音乐下载、检测、使用、播放必备四步】

破解奥迪、途锐U盘播放wav、dts音乐方法 显示歌手和歌名的CD、DTS CD无损碟片制作教程 一键制作AC3 Audio DVD杜比音乐碟片
一键制作U盘(SD卡、TF卡)无损音乐教程 任何车型播放wav、flac、ape、dts无损音乐方法 一键制作DTS Audio DVD无损音乐碟片
一键批量抓取SACD光盘ISO镜像曲目的方法 一键制作世界最顶级的DVD Audio无损音乐碟片 一键制作WAV Audio DVD无损音乐碟片
U盘、碟片播放5.1环绕声dts音乐方法总结 一键制作U盘dts、wav、flac、ape视频音乐教程 一键制作DVD图片(视频)MV音乐碟片教程
查看: 504|回复: 16

[杂合专辑] 群星《豪记之星4》【WAV+CUE/百度】

[复制链接]
发表于 2017-10-7 09:59:45 | 显示全部楼层 |阅读模式

这么精彩的内容,您还在等什么呢?马上注册风云音乐谷查看完整内容

您需要 登录 才可以下载或查看,没有帐号?注册会员

x
cover.jpg

专辑名称:豪记之星4
专辑艺人:群星
发行公司:豪记影视唱片有限公司 
发行时间:2014年08月27日
专辑语种:台语
资源类型:WAV+CUE

专辑介绍:
收录多首最新超夯经典原声原影台语流行金曲!
动人的情歌,让人更感窝心
匠尽悲欢离合真情擎爱百听不厌
金曲歌王歌后联手出击
ㄠ5首冠军歌曲.原影原音重现
精采最强档的唱将值得你珍藏

专辑曲目:
01.云儿飘 黄思婷
02.最后的 黄思婷
03.雪花黄思婷 民视八点档 龙飞凤舞 片尾曲
04.彩蝶黄思婷
05.乎乾袁小迪/杨哲
06.感谢您爱过我袁小迪/乔幼
07.嘸通做歹子袁小迪 三立 戏说台湾 片尾曲
08.朋友啊袁小迪/吴侨
09.坚强的女人谢宜君 三立八点档 世间情 片尾曲
10.新娘 谢宜君/陈随意
11.世间人的心谢宜君
12.心痛 谢宜君



下载地址:

游客,如果您要查看本帖隐藏内容请回复


套图地址:

游客,如果您要查看本帖隐藏内容请回复

评分

参与人数 1威望积分 +500 风云金币 +3 收起 理由
爱的天堂 + 500 + 3 分享不易,加分支持

查看全部评分

回复

使用道具 举报

 楼主| 发表于 2017-10-7 10:00:22 | 显示全部楼层
Exact Audio Copy V1.0 beta 3 from 29. August 2011

EAC 抓取日志文件从3. 十月 2015, 4:02

群星 / 豪记之星4

使用驱动器  :PIONEER DVD-RW  DVR-221L   Adapter: 1  ID: 1

读取模式      : 可靠Secure
使用精确流     : 是
清空音频缓存    : 是
使用 C2 指示器 : 否

读取偏移校正:               : 6
读取 Lead-In 和 Lead-Out : 否
用静音填充抓取中丢失偏移的采样       : 是
去除首尾静音块               : 否
在CRC 计算中使用了空样本       : 是
已用接口                  : Win NT 及 2000 本地 Win32 接口

所用输出模式: : 内部 WAV 函数
样本格式    : 44.100 Hz; 16 Bit; 立体声


已抓取 CD 的 TOC

     音轨 |    起始    |    长度    |  起始扇区  |  结束扇区  
    --------------------------------------------
      1 |  0:00.00 |  4:31.25 |      0 |  20349
      2 |  4:31.25 |  4:24.29 |  20350 |  40178
      3 |  8:55.54 |  4:42.24 |  40179 |  61352
      4 | 13:38.03 |  4:26.52 |  61353 |  81354
      5 | 18:04.55 |  3:45.36 |  81355 |  98265
      6 | 21:50.16 |  4:36.48 |  98266 | 119013
      7 | 26:26.64 |  4:09.37 | 119014 | 137725
      8 | 30:36.26 |  3:42.50 | 137726 | 154425
      9 | 34:19.01 |  3:57.61 | 154426 | 172261
     10 | 38:16.62 |  4:26.31 | 172262 | 192242
     11 | 42:43.18 |  3:06.08 | 192243 | 206200
     12 | 45:49.26 |  4:09.58 | 206201 | 224933


范围状态及错误

已选择范围

     文件名 E:\bhvvvv\豪记之星4\群星 - 豪记之星4.wav

     峰值电平 97.6 %
     抓取速度 1.8 X
     范围质量 100.0 %
     复制 CRC F445B5CF
     复制成功

没有错误发生

状态报告结尾

---- CUETools DB Plugin V2.1.3

[CTDB TOCID: V7uXG8K4exhVtNi4X.sPxKDC.jg-] disk not present in database, Submit result: V7uXG8K4exhVtNi4X.sPxKDC.jg- has been uploaded


==== 记录校验日志 605FD435785FCAE9FE976CCF715B40E43C943586CC5C181F8F0DE3CDE9776525 ====
回复 支持 反对

使用道具 举报

发表于 2017-10-7 11:15:12 | 显示全部楼层
感謝樓主的分享,收下了。
回复 支持 反对

使用道具 举报

发表于 2017-10-7 18:47:46 | 显示全部楼层
非常感谢楼主分享的豪记之星1-10,全部欣赏啦,真的辛苦了一次分享那么多,而且最欣赏的付了3图与内页,高清的,谢谢谢谢
回复 支持 反对

使用道具 举报

发表于 2017-10-7 19:27:50 | 显示全部楼层
顶起,感谢分享
回复 支持 反对

使用道具 举报

发表于 2017-10-8 09:36:25 | 显示全部楼层
谢谢楼主的音乐分享
回复 支持 反对

使用道具 举报

发表于 2017-10-10 11:54:36 | 显示全部楼层
群星《豪记之星4》
回复 支持 反对

使用道具 举报

发表于 2017-10-13 14:32:12 | 显示全部楼层
豪記之星 4,感恩樓主
回复 支持 反对

使用道具 举报

发表于 2017-10-24 16:40:25 | 显示全部楼层
整理辛苦、分享快乐
回复 支持 反对

使用道具 举报

发表于 2017-10-25 10:11:38 | 显示全部楼层
楼主上传的豪记之星4压缩包无法修复!可以将文件夹上传百度网盘!
回复 支持 反对

使用道具 举报

发表于 2017-10-25 20:20:26 | 显示全部楼层
辛苦楼主精心整理,谢啦
回复 支持 反对

使用道具 举报

发表于 2017-11-6 20:15:25 | 显示全部楼层
感谢楼主分享好音乐,值得珍藏,下来听听!!
回复 支持 反对

使用道具 举报

发表于 2017-11-9 05:48:53 | 显示全部楼层
谢谢楼主的音乐分享
回复 支持 反对

使用道具 举报

发表于 2017-11-9 18:21:12 | 显示全部楼层
闽南歌曲资源不多,不可错过!
回复 支持 反对

使用道具 举报

发表于 2017-11-21 13:17:28 | 显示全部楼层
群星《豪记之星4》【WAV+CUE/百度
回复 支持 反对

使用道具 举报

您需要登录后才可以回帖 登录 | 注册会员

本版积分规则

Archiver|手机版|联系我们|风云音乐谷 ( 粤ICP备09098429号-2 )  

GMT+8, 2018-6-24 19:06 , Processed in 0.104718 second(s), 21 queries .

Powered by Discuz! X3.4

© 2001-2017 Comsenz Inc.

快速回复 返回顶部 返回列表