设为首页收藏本站

风云音乐谷

 找回密码
 注册会员

QQ登录

只需一步,快速开始

扫一扫,访问微社区


【揭露淘宝、微商卖U盘音乐、无损碟片15条惊天骗术】     【无损音乐下载、检测、使用、播放必备四步】

破解奥迪、途锐U盘播放wav、dts音乐方法 显示歌手和歌名的CD、DTS CD无损碟片制作教程 一键制作AC3 Audio DVD杜比音乐碟片
一键制作U盘(SD卡、TF卡)无损音乐教程 任何车型播放wav、flac、ape、dts无损音乐方法 一键制作DTS Audio DVD无损音乐碟片
一键批量抓取SACD光盘ISO镜像曲目的方法 一键制作世界最顶级的DVD Audio无损音乐碟片 一键制作WAV Audio DVD无损音乐碟片
U盘、碟片播放5.1环绕声dts音乐方法总结 一键制作U盘dts、wav、flac、ape视频音乐教程 一键制作DVD图片(视频)MV音乐碟片教程
查看: 594|回复: 17

[杂合专辑] 群星《豪记之星5》【WAV+CUE/百度】

[复制链接]
发表于 2017-10-7 10:58:34 | 显示全部楼层 |阅读模式

这么精彩的内容,您还在等什么呢?马上注册风云音乐谷查看完整内容

您需要 登录 才可以下载或查看,没有帐号?注册会员

x
cover.jpg

专辑名称:豪记之星5
专辑艺人:群星
发行公司:豪记影视唱片有限公司 
发行时间:2014年10月15日
专辑语种:台语
资源类型:WAV+CUE

专辑介绍:
收录多首最新超夯经典原声原影台语流行金曲!
动人的情歌,让人更感窝心
匠尽悲欢离合真情擎爱百听不厌
金曲歌王歌后联手出击
ㄠ5首冠军歌曲.原影原音重现
精采最强档的唱将值得你珍藏

专辑曲目:
01.为爱相逢 《林良欢/翁立友》《三立八点档「世间情」片头曲》
02.我还爱你 《林良欢》
03.爱情十字路 《林良欢》
04.满满相思 《林良欢》
05.风雨人生 《蔡义德》
06.一句话 《蔡义德》《三立「戏说台湾」片尾曲》
07.不愿认输 《蔡义德》
08.闪酒大丈夫 《蔡义德》
09.天地无目睭 《谢金晶》
10.思念你的心 《谢金晶》《三立八点档「世间情」片头曲》
11.今夜想你 《谢金晶》
12.雨后的彩虹 《谢金晶》



下载地址:

游客,如果您要查看本帖隐藏内容请回复



套图地址:

游客,如果您要查看本帖隐藏内容请回复

评分

参与人数 1威望积分 +500 风云金币 +3 收起 理由
爱的天堂 + 500 + 3 分享不易,加分支持

查看全部评分

回复

使用道具 举报

 楼主| 发表于 2017-10-7 10:59:07 | 显示全部楼层
Exact Audio Copy V1.0 beta 3 from 29. August 2011

EAC 抓取日志文件从3. 十月 2015, 9:10

群星 / 豪记之星5

使用驱动器  :PIONEER DVD-RW  DVR-221L   Adapter: 1  ID: 1

读取模式      : 可靠Secure
使用精确流     : 是
清空音频缓存    : 是
使用 C2 指示器 : 否

读取偏移校正:               : 6
读取 Lead-In 和 Lead-Out : 否
用静音填充抓取中丢失偏移的采样       : 是
去除首尾静音块               : 否
在CRC 计算中使用了空样本       : 是
已用接口                  : Win NT 及 2000 本地 Win32 接口

所用输出模式: : 内部 WAV 函数
样本格式    : 44.100 Hz; 16 Bit; 立体声


已抓取 CD 的 TOC

     音轨 |    起始    |    长度    |  起始扇区  |  结束扇区  
    --------------------------------------------
      1 |  0:00.00 |  4:24.05 |      0 |  19804
      2 |  4:24.05 |  4:23.26 |  19805 |  39555
      3 |  8:47.31 |  4:27.33 |  39556 |  59613
      4 | 13:14.64 |  4:10.30 |  59614 |  78393
      5 | 17:25.19 |  4:45.25 |  78394 |  99793
      6 | 22:10.44 |  4:29.17 |  99794 | 119985
      7 | 26:39.61 |  5:21.29 | 119986 | 144089
      8 | 32:01.15 |  3:37.25 | 144090 | 160389
      9 | 35:38.40 |  3:34.27 | 160390 | 176466
     10 | 39:12.67 |  4:45.44 | 176467 | 197885
     11 | 43:58.36 |  4:34.47 | 197886 | 218482
     12 | 48:33.08 |  4:17.40 | 218483 | 237797


范围状态及错误

已选择范围

     文件名 E:\bhvvvv\豪记之星5\群星 - 豪记之星5.wav

     峰值电平 100.0 %
     抓取速度 1.9 X
     范围质量 100.0 %
     复制 CRC C053038A
     复制成功

没有错误发生

状态报告结尾

---- CUETools DB Plugin V2.1.3

[CTDB TOCID: 1QzQMIVfJm1lIRQN23thNZmN3H0-] disk not present in database, Submit result: 1QzQMIVfJm1lIRQN23thNZmN3H0- has been uploaded


==== 记录校验日志 3B39F88738A3DC07EF7538B690B2AE994A128A295ED1FDA9E646FAAECD3A0447 ====
回复 支持 反对

使用道具 举报

发表于 2017-10-7 11:15:05 | 显示全部楼层
感謝樓主的分享,收下了。
回复 支持 反对

使用道具 举报

发表于 2017-10-7 18:40:00 | 显示全部楼层
真心谢谢bhvvvv 分享豪记之星之五
回复 支持 反对

使用道具 举报

发表于 2017-10-7 19:29:06 | 显示全部楼层
顶起,感谢分享
回复 支持 反对

使用道具 举报

头像被屏蔽
发表于 2017-10-8 08:36:50 | 显示全部楼层
豪记之星5下载,谢谢。
回复 支持 反对

使用道具 举报

发表于 2017-10-8 09:34:40 | 显示全部楼层
谢谢楼主的音乐分享
回复 支持 反对

使用道具 举报

发表于 2017-10-10 11:55:14 | 显示全部楼层
群星《豪记之星5》
回复 支持 反对

使用道具 举报

发表于 2017-10-13 14:33:07 | 显示全部楼层
豪記之星 5,感恩樓主分享
回复 支持 反对

使用道具 举报

发表于 2017-10-24 16:44:07 | 显示全部楼层
整理辛苦+分享快乐
回复 支持 反对

使用道具 举报

发表于 2017-10-25 20:22:02 | 显示全部楼层
珍藏下来,慢慢欣赏
回复 支持 反对

使用道具 举报

发表于 2017-11-6 20:16:52 | 显示全部楼层
感谢楼主分享好音乐,值得珍藏,下来听听!!
回复 支持 反对

使用道具 举报

发表于 2017-11-9 05:50:38 | 显示全部楼层
谢谢楼主的音乐分享
回复 支持 反对

使用道具 举报

发表于 2017-11-9 18:21:58 | 显示全部楼层
闽南歌曲资源不多,不可错过!
回复 支持 反对

使用道具 举报

发表于 2017-11-22 07:42:35 | 显示全部楼层
群星《豪记之星5》【
回复 支持 反对

使用道具 举报

您需要登录后才可以回帖 登录 | 注册会员

本版积分规则

Archiver|手机版|联系我们|风云音乐谷 ( 粤ICP备09098429号-2 )  

GMT+8, 2018-6-24 19:15 , Processed in 0.114277 second(s), 24 queries .

Powered by Discuz! X3.4

© 2001-2017 Comsenz Inc.

快速回复 返回顶部 返回列表